  0
SECTION
  2
HEADER
  9
$ACADVER
  1
AC1015
  9
$ACADMAINTVER
 70
     6
  9
$DWGCODEPAGE
  3
ANSI_1252
  9
$INSBASE
 10
0.0
 20
0.0
 30
0.0
  9
$EXTMIN
 10
-1020.301402105549
 20
738.1925014954597
 30
0.0
  9
$EXTMAX
 10
-465.3014021055483
 20
1139.19250149546
 30
0.0
  9
$LIMMIN
 10
0.0
 20
0.0
  9
$LIMMAX
 10
12.0
 20
9.0
  9
$ORTHOMODE
 70
     0
  9
$REGENMODE
 70
     1
  9
$FILLMODE
 70
     1
  9
$QTEXTMODE
 70
     0
  9
$MIRRTEXT
 70
     1
  9
$LTSCALE
 40
1.0
  9
$ATTMODE
 70
     1
  9
$TEXTSIZE
 40
0.2
  9
$TRACEWID
 40
0.05
  9
$TEXTSTYLE
  7
Standard
  9
$CLAYER
  8
0
  9
$CELTYPE
  6
ByLayer
  9
$CECOLOR
 62
   256
  9
$CELTSCALE
 40
1.0
  9
$DISPSILH
 70
     0
  9
$DIMSCALE
 40
1.0
  9
$DIMASZ
 40
0.18
  9
$DIMEXO
 40
0.0625
  9
$DIMDLI
 40
0.38
  9
$DIMRND
 40
0.0
  9
$DIMDLE
 40
0.0
  9
$DIMEXE
 40
0.18
  9
$DIMTP
 40
0.0
  9
$DIMTM
 40
0.0
  9
$DIMTXT
 40
0.18
  9
$DIMCEN
 40
0.09
  9
$DIMTSZ
 40
0.0
  9
$DIMTOL
 70
     0
  9
$DIMLIM
 70
     0
  9
$DIMTIH
 70
     1
  9
$DIMTOH
 70
     1
  9
$DIMSE1
 70
     0
  9
$DIMSE2
 70
     0
  9
$DIMTAD
 70
     0
  9
$DIMZIN
 70
     0
  9
$DIMBLK
  1

  9
$DIMASO
 70
     1
  9
$DIMSHO
 70
     1
  9
$DIMPOST
  1

  9
$DIMAPOST
  1

  9
$DIMALT
 70
     0
  9
$DIMALTD
 70
     2
  9
$DIMALTF
 40
25.4
  9
$DIMLFAC
 40
1.0
  9
$DIMTOFL
 70
     0
  9
$DIMTVP
 40
0.0
  9
$DIMTIX
 70
     0
  9
$DIMSOXD
 70
     0
  9
$DIMSAH
 70
     0
  9
$DIMBLK1
  1

  9
$DIMBLK2
  1

  9
$DIMSTYLE
  2
Standard
  9
$DIMCLRD
 70
     0
  9
$DIMCLRE
 70
     0
  9
$DIMCLRT
 70
     0
  9
$DIMTFAC
 40
1.0
  9
$DIMGAP
 40
0.09
  9
$DIMJUST
 70
     0
  9
$DIMSD1
 70
     0
  9
$DIMSD2
 70
     0
  9
$DIMTOLJ
 70
     1
  9
$DIMTZIN
 70
     0
  9
$DIMALTZ
 70
     0
  9
$DIMALTTZ
 70
     0
  9
$DIMUPT
 70
     0
  9
$DIMDEC
 70
     4
  9
$DIMTDEC
 70
     4
  9
$DIMALTU
 70
     2
  9
$DIMALTTD
 70
     2
  9
$DIMTXSTY
  7
Standard
  9
$DIMAUNIT
 70
     0
  9
$DIMADEC
 70
     0
  9
$DIMALTRND
 40
0.0
  9
$DIMAZIN
 70
     0
  9
$DIMDSEP
 70
    46
  9
$DIMATFIT
 70
     3
  9
$DIMFRAC
 70
     0
  9
$DIMLDRBLK
  1

  9
$DIMLUNIT
 70
     2
  9
$DIMLWD
 70
    -2
  9
$DIMLWE
 70
    -2
  9
$DIMTMOVE
 70
     0
  9
$LUNITS
 70
     2
  9
$LUPREC
 70
     4
  9
$SKETCHINC
 40
0.1
  9
$FILLETRAD
 40
0.5
  9
$AUNITS
 70
     0
  9
$AUPREC
 70
     0
  9
$MENU
  1
.
  9
$ELEVATION
 40
0.0
  9
$PELEVATION
 40
0.0
  9
$THICKNESS
 40
0.0
  9
$LIMCHECK
 70
     0
  9
$CHAMFERA
 40
0.5
  9
$CHAMFERB
 40
0.5
  9
$CHAMFERC
 40
1.0
  9
$CHAMFERD
 40
0.0
  9
$SKPOLY
 70
     0
  9
$TDCREATE
 40
2456238.436898403
  9
$TDUCREATE
 40
2456238.395231736
  9
$TDUPDATE
 40
2456238.436898415
  9
$TDUUPDATE
 40
2456238.395231748
  9
$TDINDWG
 40
0.0000000116
  9
$TDUSRTIMER
 40
0.0000000116
  9
$USRTIMER
 70
     1
  9
$ANGBASE
 50
0.0
  9
$ANGDIR
 70
     0
  9
$PDMODE
 70
     0
  9
$PDSIZE
 40
0.0
  9
$PLINEWID
 40
0.0
  9
$SPLFRAME
 70
     0
  9
$SPLINETYPE
 70
     6
  9
$SPLINESEGS
 70
     8
  9
$HANDSEED
  5
296
  9
$SURFTAB1
 70
     6
  9
$SURFTAB2
 70
     6
  9
$SURFTYPE
 70
     6
  9
$SURFU
 70
     6
  9
$SURFV
 70
     6
  9
$UCSBASE
  2

  9
$UCSNAME
  2

  9
$UCSORG
 10
0.0
 20
0.0
 30
0.0
  9
$UCSXDIR
 10
1.0
 20
0.0
 30
0.0
  9
$UCSYDIR
 10
0.0
 20
1.0
 30
0.0
  9
$UCSORTHOREF
  2

  9
$UCSORTHOVIEW
 70
     0
  9
$UCSORGTOP
 10
0.0
 20
0.0
 30
0.0
  9
$UCSORGBOTTOM
 10
0.0
 20
0.0
 30
0.0
  9
$UCSORGLEFT
 10
0.0
 20
0.0
 30
0.0
  9
$UCSORGRIGHT
 10
0.0
 20
0.0
 30
0.0
  9
$UCSORGFRONT
 10
0.0
 20
0.0
 30
0.0
  9
$UCSORGBACK
 10
0.0
 20
0.0
 30
0.0
  9
$PUCSBASE
  2

  9
$PUCSNAME
  2

  9
$PUCSORG
 10
0.0
 20
0.0
 30
0.0
  9
$PUCSXDIR
 10
1.0
 20
0.0
 30
0.0
  9
$PUCSYDIR
 10
0.0
 20
1.0
 30
0.0
  9
$PUCSORTHOREF
  2

  9
$PUCSORTHOVIEW
 70
     0
  9
$PUCSORGTOP
 10
0.0
 20
0.0
 30
0.0
  9
$PUCSORGBOTTOM
 10
0.0
 20
0.0
 30
0.0
  9
$PUCSORGLEFT
 10
0.0
 20
0.0
 30
0.0
  9
$PUCSORGRIGHT
 10
0.0
 20
0.0
 30
0.0
  9
$PUCSORGFRONT
 10
0.0
 20
0.0
 30
0.0
  9
$PUCSORGBACK
 10
0.0
 20
0.0
 30
0.0
  9
$USERI1
 70
     0
  9
$USERI2
 70
     0
  9
$USERI3
 70
     0
  9
$USERI4
 70
     0
  9
$USERI5
 70
     0
  9
$USERR1
 40
18.0
  9
$USERR2
 40
0.0
  9
$USERR3
 40
0.0
  9
$USERR4
 40
0.0
  9
$USERR5
 40
0.0
  9
$WORLDVIEW
 70
     1
  9
$SHADEDGE
 70
     3
  9
$SHADEDIF
 70
    70
  9
$TILEMODE
 70
     1
  9
$MAXACTVP
 70
    64
  9
$PINSBASE
 10
0.0
 20
0.0
 30
0.0
  9
$PLIMCHECK
 70
     0
  9
$PEXTMIN
 10
1.00000000000000E+20
 20
1.00000000000000E+20
 30
1.00000000000000E+20
  9
$PEXTMAX
 10
-1.00000000000000E+20
 20
-1.00000000000000E+20
 30
-1.00000000000000E+20
  9
$PLIMMIN
 10
0.0
 20
0.0
  9
$PLIMMAX
 10
12.0
 20
9.0
  9
$UNITMODE
 70
     0
  9
$VISRETAIN
 70
     1
  9
$PLINEGEN
 70
     0
  9
$PSLTSCALE
 70
     1
  9
$TREEDEPTH
 70
  3020
  9
$CMLSTYLE
  2
Standard
  9
$CMLJUST
 70
     0
  9
$CMLSCALE
 40
1.0
  9
$PROXYGRAPHICS
 70
     1
  9
$MEASUREMENT
 70
     1
  9
$CELWEIGHT
370
    -1
  9
$ENDCAPS
280
     0
  9
$JOINSTYLE
280
     0
  9
$LWDISPLAY
290
     0
  9
$INSUNITS
 70
     1
  9
$HYPERLINKBASE
  1

  9
$STYLESHEET
  1

  9
$XEDIT
290
     1
  9
$CEPSNTYPE
380
     0
  9
$PSTYLEMODE
290
     1
  9
$FINGERPRINTGUID
  2
{326AB0C4-010C-4A76-BA79-01AB82989F11}
  9
$VERSIONGUID
  2
{FAEB1C32-E019-11D5-929B-00C0DF256EC4}
  9
$EXTNAMES
290
     1
  9
$PSVPSCALE
 40
0.0
  9
$OLESTARTUP
290
     0
  0
ENDSEC
  0
SECTION
  2
CLASSES
  0
CLASS
  1
ACDBDICTIONARYWDFLT
  2
AcDbDictionaryWithDefault
  3
ObjectDBX Classes
 90
        0
280
     0
281
     0
  0
CLASS
  1
VISUALSTYLE
  2
AcDbVisualStyle
  3
ObjectDBX Classes
 90
     4095
280
     0
281
     0
  0
CLASS
  1
MATERIAL
  2
AcDbMaterial
  3
ObjectDBX Classes
 90
     1153
280
     0
281
     0
  0
CLASS
  1
SCALE
  2
AcDbScale
  3
ObjectDBX Classes
 90
     1153
280
     0
281
     0
  0
CLASS
  1

  2
exOdDbPolyline
  3

 90
        0
280
     0
281
     1
  0
CLASS
  1

  2
exOdDbCircle
  3

 90
        0
280
     0
281
     1
  0
CLASS
  1

  2
exOdDbSpline
  3

 90
        0
280
     0
281
     1
  0
CLASS
  1
DICTIONARYVAR
  2
AcDbDictionaryVar
  3
ObjectDBX Classes
 90
        0
280
     0
281
     0
  0
CLASS
  1
ACDBPLACEHOLDER
  2
AcDbPlaceHolder
  3
ObjectDBX Classes
 90
        0
280
     0
281
     0
  0
CLASS
  1
LAYOUT
  2
AcDbLayout
  3
ObjectDBX Classes
 90
        0
280
     0
281
     0
  0
ENDSEC
  0
SECTION
  2
TABLES
  0
TABLE
  2
VPORT
  5
8
330
0
100
AcDbSymbolTable
 70
     1
  0
VPORT
  5
29
330
8
100
AcDbSymbolTableRecord
100
AcDbViewportTableRecord
  2
*Active
 70
     0
 10
0.0
 20
0.0
 11
1.0
 21
1.0
 12
-742.8014021055486
 22
938.6925014954599
 13
0.0
 23
0.0
 14
0.5
 24
0.5
 15
0.5
 25
0.5
 16
0.0
 26
0.0
 36
1.0
 17
0.0
 27
0.0
 37
0.0
 40
441.1000000000003
 41
1.60267857142857
 42
50.0
 43
0.0
 44
0.0
 50
0.0
 51
0.0
 71
     0
 72
   100
 73
     1
 74
     3
 75
     0
 76
     0
 77
     0
 78
     0
281
     0
 65
     1
110
0.0
120
0.0
130
0.0
111
1.0
121
0.0
131
0.0
112
0.0
122
1.0
132
0.0
 79
     0
146
0.0
  0
ENDTAB
  0
TABLE
  2
LTYPE
  5
5
330
0
100
AcDbSymbolTable
 70
     8
  0
LTYPE
  5
14
330
5
100
AcDbSymbolTableRecord
100
AcDbLinetypeTableRecord
  2
ByBlock
 70
     0
  3

 72
    65
 73
     0
 40
0.0
  0
LTYPE
  5
15
330
5
100
AcDbSymbolTableRecord
100
AcDbLinetypeTableRecord
  2
ByLayer
 70
     0
  3

 72
    65
 73
     0
 40
0.0
  0
LTYPE
  5
16
330
5
100
AcDbSymbolTableRecord
100
AcDbLinetypeTableRecord
  2
Continuous
 70
     0
  3
Solid line
 72
    65
 73
     0
 40
0.0
  0
LTYPE
  5
3F
330
5
100
AcDbSymbolTableRecord
100
AcDbLinetypeTableRecord
  2
DASHED
 70
     0
  3
Dashed
 72
    65
 73
     2
 40
15.0
 49
7.0
 74
     0
 49
-8.0
 74
     0
  0
LTYPE
  5
40
330
5
100
AcDbSymbolTableRecord
100
AcDbLinetypeTableRecord
  2
DOTTED
 70
     0
  3
Dotted
 72
    65
 73
     2
 40
1.0
 49
0.0
 74
     0
 49
-1.0
 74
     0
  0
LTYPE
  5
41
330
5
100
AcDbSymbolTableRecord
100
AcDbLinetypeTableRecord
  2
DOT_CENTER
 70
     0
  3
Dot_Center
 72
    65
 73
     4
 40
14.0
 49
12.0
 74
     0
 49
-1.0
 74
     0
 49
0.0
 74
     0
 49
-1.0
 74
     0
  0
LTYPE
  5
42
330
5
100
AcDbSymbolTableRecord
100
AcDbLinetypeTableRecord
  2
LONG_DASHED
 70
     0
  3
Long_Dashed
 72
    65
 73
     2
 40
15.0
 49
10.0
 74
     0
 49
-5.0
 74
     0
  0
LTYPE
  5
43
330
5
100
AcDbSymbolTableRecord
100
AcDbLinetypeTableRecord
  2
DASH_CENTER
 70
     0
  3
Dash_Center
 72
    65
 73
     4
 40
14.0
 49
11.0
 74
     0
 49
-1.0
 74
     0
 49
1.0
 74
     0
 49
-1.0
 74
     0
  0
LTYPE
  5
44
330
5
100
AcDbSymbolTableRecord
100
AcDbLinetypeTableRecord
  2
PHANTOM
 70
     0
  3
Phantom
 72
    65
 73
     6
 40
13.0
 49
10.0
 74
     0
 49
-1.0
 74
     0
 49
0.0
 74
     0
 49
-1.0
 74
     0
 49
0.0
 74
     0
 49
-1.0
 74
     0
  0
LTYPE
  5
45
330
5
100
AcDbSymbolTableRecord
100
AcDbLinetypeTableRecord
  2
CENTER_DASH_DASH
 70
     0
  3
Center_Dash_Dash
 72
    65
 73
     6
 40
14.0
 49
9.0
 74
     0
 49
-1.0
 74
     0
 49
1.0
 74
     0
 49
-1.0
 74
     0
 49
1.0
 74
     0
 49
-1.0
 74
     0
  0
ENDTAB
  0
TABLE
  2
LAYER
  5
2
330
0
100
AcDbSymbolTable
 70
     5
  0
LAYER
  5
10
330
2
100
AcDbSymbolTableRecord
100
AcDbLayerTableRecord
  2
0
 70
     0
 62
     7
  6
Continuous
370
    -3
390
F
  0
LAYER
  5
46
330
2
100
AcDbSymbolTableRecord
100
AcDbLayerTableRecord
  2
1
 70
     0
 62
     7
  6
Continuous
370
    -3
390
F
  0
LAYER
  5
47
330
2
100
AcDbSymbolTableRecord
100
AcDbLayerTableRecord
  2
Schraffur
 70
     0
 62
     7
  6
Continuous
370
    -3
390
F
  0
LAYER
  5
48
330
2
100
AcDbSymbolTableRecord
100
AcDbLayerTableRecord
  2
Skizziergeometrie_ISO_
 70
     0
 62
     7
  6
Continuous
370
    -3
390
F
  0
LAYER
  5
49
330
2
100
AcDbSymbolTableRecord
100
AcDbLayerTableRecord
  2
Symbole_ISO_
 70
     0
 62
     7
  6
Continuous
370
    -3
390
F
  0
ENDTAB
  0
TABLE
  2
STYLE
  5
3
330
0
100
AcDbSymbolTable
 70
     6
  0
STYLE
  5
11
330
3
100
AcDbSymbolTableRecord
100
AcDbTextStyleTableRecord
  2
Standard
 70
     0
 40
0.0
 41
1.0
 50
0.0
 71
     0
 42
0.2
  3
txt
  4

  0
STYLE
  5
75
330
3
100
AcDbSymbolTableRecord
100
AcDbTextStyleTableRecord
  2
CONVERTER_11
 70
     0
 40
0.0
 41
0.67499998211861
 50
0.0
 71
     0
 42
0.2
  3
txt.shx
  4

  0
STYLE
  5
234
330
3
100
AcDbSymbolTableRecord
100
AcDbTextStyleTableRecord
  2
CONVERTER_12
 70
     0
 40
0.0
 41
0.9
 50
0.0
 71
     0
 42
0.2
  3
txt.shx
  4

  0
STYLE
  5
23A
330
3
100
AcDbSymbolTableRecord
100
AcDbTextStyleTableRecord
  2
CONVERTER_13
 70
     0
 40
0.0
 41
0.89999994635582
 50
0.0
 71
     0
 42
0.2
  3
txt.shx
  4

  0
STYLE
  5
23D
330
3
100
AcDbSymbolTableRecord
100
AcDbTextStyleTableRecord
  2
CONVERTER_14
 70
     0
 40
0.0
 41
0.9
 50
0.0
 71
     0
 42
0.2
  3
txt.shx
  4

  0
STYLE
  5
248
330
3
100
AcDbSymbolTableRecord
100
AcDbTextStyleTableRecord
  2
CONVERTER_15
 70
     0
 40
0.0
 41
0.95
 50
0.0
 71
     0
 42
0.2
  3
simplex.shx
  4

  0
ENDTAB
  0
TABLE
  2
VIEW
  5
6
330
0
100
AcDbSymbolTable
 70
     0
  0
ENDTAB
  0
TABLE
  2
UCS
  5
7
330
0
100
AcDbSymbolTable
 70
     0
  0
ENDTAB
  0
TABLE
  2
APPID
  5
9
330
0
100
AcDbSymbolTable
 70
     1
  0
APPID
  5
12
330
9
100
AcDbSymbolTableRecord
100
AcDbRegAppTableRecord
  2
ACAD
 70
     0
  0
ENDTAB
  0
TABLE
  2
DIMSTYLE
  5
A
330
0
100
AcDbSymbolTable
 70
     4
100
AcDbDimStyleTable
  0
DIMSTYLE
105
27
330
A
100
AcDbSymbolTableRecord
100
AcDbDimStyleTableRecord
  2
Standard
 70
     0
340
11
  0
DIMSTYLE
105
24C
102
{ACAD_REACTORS
330
24D
102
}
330
A
100
AcDbSymbolTableRecord
100
AcDbDimStyleTableRecord
  2
ME10_DIM_10
 70
     0
 41
6.0
 42
1.0
 44
2.0
 73
     0
 74
     0
 78
     8
140
6.0
147
4.0
172
     1
173
     1
174
     1
175
     1
176
     2
177
     2
178
     4
271
     0
340
248
  0
DIMSTYLE
105
258
102
{ACAD_REACTORS
330
259
102
}
330
A
100
AcDbSymbolTableRecord
100
AcDbDimStyleTableRecord
  2
ME10_DIM_11
 70
     0
 41
6.0
 42
1.0
 44
2.0
 73
     0
 74
     0
 78
     8
140
6.0
147
4.0
172
     1
173
     1
174
     1
175
     1
176
     2
177
     2
178
     4
271
     0
340
248
  0
DIMSTYLE
105
264
102
{ACAD_REACTORS
330
265
102
}
330
A
100
AcDbSymbolTableRecord
100
AcDbDimStyleTableRecord
  2
ME10_DIM_12
 70
     0
 41
6.0
 42
1.0
 44
2.0
 73
     0
 74
     0
 78
     8
140
6.0
147
4.0
172
     1
173
     1
174
     1
175
     1
176
     2
177
     2
178
     4
271
     2
340
248
  0
ENDTAB
  0
TABLE
  2
BLOCK_RECORD
  5
1
330
0
100
AcDbSymbolTable
 70
     5
  0
BLOCK_RECORD
  5
1F
330
1
100
AcDbSymbolTableRecord
100
AcDbBlockTableRecord
  2
*Model_Space
340
22
  0
BLOCK_RECORD
  5
1B
330
1
100
AcDbSymbolTableRecord
100
AcDbBlockTableRecord
  2
*Paper_Space
340
1E
  0
BLOCK_RECORD
  5
23
330
1
100
AcDbSymbolTableRecord
100
AcDbBlockTableRecord
  2
*Paper_Space0
340
26
  0
BLOCK_RECORD
  5
4A
330
1
100
AcDbSymbolTableRecord
100
AcDbBlockTableRecord
  2
Ränder_Ilme_Rahmen_A4_quer
340
0
102
{BLKREFS
331
6F
102
}
  0
BLOCK_RECORD
  5
241
330
1
100
AcDbSymbolTableRecord
100
AcDbBlockTableRecord
  2
*D2
340
0
  0
BLOCK_RECORD
  5
24E
330
1
100
AcDbSymbolTableRecord
100
AcDbBlockTableRecord
  2
*D3
340
0
  0
BLOCK_RECORD
  5
25A
330
1
100
AcDbSymbolTableRecord
100
AcDbBlockTableRecord
  2
*D4
340
0
  0
ENDTAB
  0
ENDSEC
  0
SECTION
  2
BLOCKS
  0
BLOCK
  5
20
330
1F
100
AcDbEntity
  8
0
100
AcDbBlockBegin
  2
*Model_Space
 70
     0
 10
0.0
 20
0.0
 30
0.0
  3
*Model_Space
  1

  0
ENDBLK
  5
21
330
1F
100
AcDbEntity
  8
0
100
AcDbBlockEnd
  0
BLOCK
  5
1C
330
1B
100
AcDbEntity
 67
     1
  8
0
100
AcDbBlockBegin
  2
*Paper_Space
 70
     0
 10
0.0
 20
0.0
 30
0.0
  3
*Paper_Space
  1

  0
ENDBLK
  5
1D
330
1B
100
AcDbEntity
 67
     1
  8
0
100
AcDbBlockEnd
  0
BLOCK
  5
24
330
23
100
AcDbEntity
  8
0
100
AcDbBlockBegin
  2
*Paper_Space0
 70
     0
 10
0.0
 20
0.0
 30
0.0
  3
*Paper_Space0
  1

  0
ENDBLK
  5
25
330
23
100
AcDbEntity
  8
0
100
AcDbBlockEnd
  0
BLOCK
  5
4B
330
4A
100
AcDbEntity
  8
0
100
AcDbBlockBegin
  2
Ränder_Ilme_Rahmen_A4_quer
 70
     0
 10
-1039.801402105549
 20
718.69250149546
 30
0.0
  3
Ränder_Ilme_Rahmen_A4_quer
  1

  0
LWPOLYLINE
  5
70
330
4A
100
AcDbEntity
  8
Skizziergeometrie_ISO_
  6
Continuous
 62
     7
100
AcDbPolyline
 90
        2
 70
     0
 43
0.5
 10
-1019.801402105549
 20
738.69250149546
 10
-1019.801402105549
 20
1098.69250149546
  0
LWPOLYLINE
  5
71
330
4A
100
AcDbEntity
  8
Skizziergeometrie_ISO_
  6
Continuous
 62
     7
100
AcDbPolyline
 90
        2
 70
     0
 43
0.5
 10
-1019.801402105549
 20
1098.69250149546
 10
-465.8014021055483
 20
1098.69250149546
  0
LWPOLYLINE
  5
72
330
4A
100
AcDbEntity
  8
Skizziergeometrie_ISO_
  6
Continuous
 62
     7
100
AcDbPolyline
 90
        2
 70
     0
 43
0.5
 10
-1019.801402105549
 20
738.69250149546
 10
-465.8014021055483
 20
738.69250149546
  0
LWPOLYLINE
  5
73
330
4A
100
AcDbEntity
  8
Skizziergeometrie_ISO_
  6
Continuous
 62
     7
100
AcDbPolyline
 90
        2
 70
     0
 43
0.5
 10
-742.8014021055487
 20
1138.69250149546
 10
-742.8014021055487
 20
1110.69250149546
  0
LWPOLYLINE
  5
74
330
4A
100
AcDbEntity
  8
Skizziergeometrie_ISO_
  6
Continuous
 62
     7
100
AcDbPolyline
 90
        2
 70
     0
 43
0.5
 10
-465.8014021055483
 20
1098.69250149546
 10
-465.8014021055483
 20
738.69250149546
  0
MTEXT
  5
76
330
4A
100
AcDbEntity
  8
Symbole_ISO_
 62
     7
100
AcDbMText
 10
-739.7014021055487
 20
1111.52226165553
 30
0.0
 40
7.0
 41
0.0
 71
     2
 72
     1
  1
Diritti riservati     All rights reserved
  7
CONVERTER_11
 73
     1
 44
0.75727272727273
  0
ENDBLK
  5
4C
330
4A
100
AcDbEntity
  8
0
100
AcDbBlockEnd
  0
BLOCK
  5
24A
330
241
100
AcDbEntity
  8
0
100
AcDbBlockBegin
  2
*D2
 70
     1
 10
0.0
 20
0.0
 30
0.0
  3
*D2
  1

  0
LINE
  5
242
330
241
100
AcDbEntity
  8
1
  6
Continuous
 62
     2
100
AcDbLine
 10
-871.1076651402689
 20
969.0859895201357
 30
0.0
 11
-814.3585507043974
 21
969.0859895201357
 31
0.0
  0
LINE
  5
243
330
241
100
AcDbEntity
  8
1
  6
Continuous
 62
     2
100
AcDbLine
 10
-793.7585507043975
 20
969.0859895201357
 30
0.0
 11
-737.0094362685261
 21
969.0859895201357
 31
0.0
  0
LINE
  5
244
330
241
100
AcDbEntity
  8
1
  6
Continuous
 62
     2
100
AcDbLine
 10
-871.1076651402689
 20
990.7859895201359
 30
0.0
 11
-871.1076651402689
 21
967.0859895201357
 31
0.0
  0
LINE
  5
245
330
241
100
AcDbEntity
  8
1
  6
Continuous
 62
     2
100
AcDbLine
 10
-737.0094362685261
 20
1028.984218393908
 30
0.0
 11
-737.0094362685261
 21
967.0859895201357
 31
0.0
  0
SOLID
  5
246
330
241
100
AcDbEntity
  8
1
 62
     2
100
AcDbTrace
 10
-865.1076651402689
 20
969.8759045056601
 30
0.0
 11
-865.1076651402689
 21
968.2960745346114
 31
0.0
 12
-871.1076651402689
 22
969.0859895201357
 32
0.0
 13
-871.1076651402689
 23
969.0859895201357
 33
0.0
  0
SOLID
  5
247
330
241
100
AcDbEntity
  8
1
 62
     2
100
AcDbTrace
 10
-743.0094362685261
 20
968.2960745346114
 30
0.0
 11
-743.0094362685261
 21
969.8759045056601
 31
0.0
 12
-737.0094362685261
 22
969.0859895201357
 32
0.0
 13
-737.0094362685261
 23
969.0859895201357
 33
0.0
  0
MTEXT
  5
249
330
241
100
AcDbEntity
  8
1
 62
     4
100
AcDbMText
 10
-810.3585507043974
 20
966.0859895201357
 30
0.0
 40
6.0
 41
0.0
 71
     7
 72
     1
  1
134
  7
CONVERTER_15
 11
0.9999999999970619
 21
2.424068405545306E-6
 31
0.0
 73
     1
 44
0.60024009603842
  0
ENDBLK
  5
24B
330
241
100
AcDbEntity
  8
0
100
AcDbBlockEnd
  0
BLOCK
  5
256
330
24E
100
AcDbEntity
  8
0
100
AcDbBlockBegin
  2
*D3
 70
     1
 10
0.0
 20
0.0
 30
0.0
  3
*D3
  1

  0
LINE
  5
24F
330
24E
100
AcDbEntity
  8
1
  6
Continuous
 62
     2
100
AcDbLine
 10
-630.7070230779502
 20
1043.98421839391
 30
0.0
 11
-630.7070230779502
 21
1022.385103957024
 31
0.0
  0
LINE
  5
250
330
24E
100
AcDbEntity
  8
1
  6
Continuous
 62
     2
100
AcDbLine
 10
-630.7070230779502
 20
1005.385103957024
 30
0.0
 11
-630.7070230779502
 21
983.785989520138
 31
0.0
  0
LINE
  5
251
330
24E
100
AcDbEntity
  8
1
  6
Continuous
 62
     2
100
AcDbLine
 10
-616.8014021055483
 20
1043.98421839391
 30
0.0
 11
-632.7070230779502
 21
1043.98421839391
 31
0.0
  0
LINE
  5
252
330
24E
100
AcDbEntity
  8
1
  6
Continuous
 62
     2
100
AcDbLine
 10
-616.8014021055483
 20
983.785989520138
 30
0.0
 11
-632.7070230779502
 21
983.785989520138
 31
0.0
  0
SOLID
  5
253
330
24E
100
AcDbEntity
  8
1
 62
     2
100
AcDbTrace
 10
-629.9171080924259
 20
1037.98421839391
 30
0.0
 11
-631.4969380634745
 21
1037.98421839391
 31
0.0
 12
-630.7070230779502
 22
1043.98421839391
 32
0.0
 13
-630.7070230779502
 23
1043.98421839391
 33
0.0
  0
SOLID
  5
254
330
24E
100
AcDbEntity
  8
1
 62
     2
100
AcDbTrace
 10
-631.4969380634745
 20
989.785989520138
 30
0.0
 11
-629.9171080924259
 21
989.785989520138
 31
0.0
 12
-630.7070230779502
 22
983.785989520138
 32
0.0
 13
-630.7070230779502
 23
983.785989520138
 33
0.0
  0
MTEXT
  5
255
330
24E
100
AcDbEntity
  8
1
 62
     4
100
AcDbMText
 10
-627.7070230779502
 20
1009.385103957024
 30
0.0
 40
6.0
 41
0.0
 71
     7
 72
     1
  1
60
  7
CONVERTER_15
 11
0.0
 21
1.0
 31
0.0
 73
     1
 44
0.60024009603842
  0
ENDBLK
  5
257
330
24E
100
AcDbEntity
  8
0
100
AcDbBlockEnd
  0
BLOCK
  5
262
330
25A
100
AcDbEntity
  8
0
100
AcDbBlockBegin
  2
*D4
 70
     1
 10
0.0
 20
0.0
 30
0.0
  3
*D4
  1

  0
LINE
  5
25B
330
25A
100
AcDbEntity
  8
1
  6
Continuous
 62
     2
100
AcDbLine
 10
-722.3744805948548
 20
892.9450184306645
 30
0.0
 11
-722.3744805948548
 21
884.445018411757
 31
0.0
  0
LINE
  5
25C
330
25A
100
AcDbEntity
  8
1
  6
Continuous
 62
     2
100
AcDbLine
 10
-722.3744805948548
 20
867.445018411757
 30
0.0
 11
-722.3744805948548
 21
858.9450183928494
 31
0.0
  0
LINE
  5
25D
330
25A
100
AcDbEntity
  8
1
  6
Continuous
 62
     2
100
AcDbLine
 10
-743.9914362685255
 20
892.9450184306645
 30
0.0
 11
-720.3744805948548
 21
892.9450184306645
 31
0.0
  0
LINE
  5
25E
330
25A
100
AcDbEntity
  8
1
  6
Continuous
 62
     2
100
AcDbLine
 10
-765.5575167248667
 20
858.9450183928494
 30
0.0
 11
-720.3744805948548
 21
858.9450183928494
 31
0.0
  0
SOLID
  5
25F
330
25A
100
AcDbEntity
  8
1
 62
     2
100
AcDbTrace
 10
-721.5845656093305
 20
886.9450184306645
 30
0.0
 11
-723.1643955803792
 21
886.9450184306645
 31
0.0
 12
-722.3744805948548
 22
892.9450184306645
 32
0.0
 13
-722.3744805948548
 23
892.9450184306645
 33
0.0
  0
SOLID
  5
260
330
25A
100
AcDbEntity
  8
1
 62
     2
100
AcDbTrace
 10
-723.1643955803792
 20
864.9450183928494
 30
0.0
 11
-721.5845656093305
 21
864.9450183928494
 31
0.0
 12
-722.3744805948548
 22
858.9450183928494
 32
0.0
 13
-722.3744805948548
 23
858.9450183928494
 33
0.0
  0
MTEXT
  5
261
330
25A
100
AcDbEntity
  8
1
 62
     4
100
AcDbMText
 10
-719.3744805948548
 20
871.445018411757
 30
0.0
 40
6.0
 41
0.0
 71
     7
 72
     1
  1
34
  7
CONVERTER_15
 11
0.0
 21
1.0
 31
0.0
 73
     1
 44
0.60024009603842
  0
ENDBLK
  5
263
330
25A
100
AcDbEntity
  8
0
100
AcDbBlockEnd
  0
ENDSEC
  0
SECTION
  2
ENTITIES
  0
INSERT
  5
6F
330
1F
100
AcDbEntity
  8
0
100
AcDbBlockReference
  2
Ränder_Ilme_Rahmen_A4_quer
 10
-1039.801402105549
 20
718.69250149546
 30
0.0
  0
LINE
  5
77
330
1F
100
AcDbEntity
  8
0
  6
Continuous
 62
     2
100
AcDbLine
 10
-600.3014021055484
 20
997.8550682122344
 30
0.0
 11
-585.6284639151828
 21
998.367458504547
 31
0.0
  0
LINE
  5
78
330
1F
100
AcDbEntity
  8
0
  6
Continuous
 62
     7
100
AcDbLine
 10
-600.3014021055484
 20
991.3590278366105
 30
0.0
 11
-586.2556644735163
 21
991.8495158028002
 31
0.0
  0
LINE
  5
79
330
1F
100
AcDbEntity
  8
0
  6
Continuous
 62
     7
100
AcDbLine
 10
-609.8014021055483
 20
991.7859895201378
 30
0.0
 11
-609.8014021055483
 21
994.9859895203718
 31
0.0
  0
LINE
  5
7A
330
1F
100
AcDbEntity
  8
0
  6
Continuous
 62
     7
100
AcDbLine
 10
-600.3014021055484
 20
991.3590278366105
 30
0.0
 11
-600.3014021055484
 21
987.3859895203717
 31
0.0
  0
LINE
  5
7B
330
1F
100
AcDbEntity
  8
0
  6
Continuous
 62
     2
100
AcDbLine
 10
-609.8014021055483
 20
994.9859895203718
 30
0.0
 11
-601.3014021055484
 21
994.9859895203718
 31
0.0
  0
LINE
  5
7C
330
1F
100
AcDbEntity
  8
0
  6
Continuous
 62
     7
100
AcDbLine
 10
-600.3014021055484
 20
994.9859895203718
 30
0.0
 11
-600.3014021055484
 21
991.3590278366105
 31
0.0
  0
LINE
  5
7D
330
1F
100
AcDbEntity
  8
0
  6
Continuous
 62
     2
100
AcDbLine
 10
-600.3014021055484
 20
994.9859895203718
 30
0.0
 11
-601.3014021055484
 21
994.9859895203718
 31
0.0
  0
LINE
  5
7E
330
1F
100
AcDbEntity
  8
0
  6
Continuous
 62
     2
100
AcDbLine
 10
-609.8014021055483
 20
991.7859895201378
 30
0.0
 11
-610.8014021055483
 21
991.7859895201378
 31
0.0
  0
LINE
  5
7F
330
1F
100
AcDbEntity
  8
0
  6
Continuous
 62
     7
100
AcDbLine
 10
-609.8014021055483
 20
986.3859895203717
 30
0.0
 11
-601.3014021055484
 21
986.3859895203717
 31
0.0
  0
LINE
  5
80
330
1F
100
AcDbEntity
  8
0
  6
Continuous
 62
     7
100
AcDbLine
 10
-609.8014021055483
 20
986.3859895203717
 30
0.0
 11
-609.8014021055483
 21
984.7859895201378
 31
0.0
  0
LINE
  5
81
330
1F
100
AcDbEntity
  8
0
  6
Continuous
 62
     7
100
AcDbLine
 10
-609.8014021055483
 20
991.7859895201378
 30
0.0
 11
-609.8014021055483
 21
986.3859895203717
 31
0.0
  0
LINE
  5
82
330
1F
100
AcDbEntity
  8
0
  6
Continuous
 62
     2
100
AcDbLine
 10
-601.3014021055484
 20
994.9859895203718
 30
0.0
 11
-601.3014021055484
 21
986.3859895203717
 31
0.0
  0
LINE
  5
83
330
1F
100
AcDbEntity
  8
0
  6
Continuous
 62
     7
100
AcDbLine
 10
-600.3014021055484
 20
997.8550682122344
 30
0.0
 11
-600.3014021055484
 21
994.9859895203718
 31
0.0
  0
LINE
  5
84
330
1F
100
AcDbEntity
  8
0
  6
Continuous
 62
     2
100
AcDbLine
 10
-610.8014021055483
 20
991.7859895201378
 30
0.0
 11
-610.8014021055483
 21
997.7859895201378
 31
0.0
  0
LINE
  5
85
330
1F
100
AcDbEntity
  8
0
  6
Continuous
 62
     7
100
AcDbLine
 10
-609.8014021055483
 20
994.9859895203718
 30
0.0
 11
-609.8014021055483
 21
997.7859895201378
 31
0.0
  0
LINE
  5
86
330
1F
100
AcDbEntity
  8
0
  6
Continuous
 62
     2
100
AcDbLine
 10
-609.8014021055483
 20
997.7859895201378
 30
0.0
 11
-610.8014021055483
 21
997.7859895201378
 31
0.0
  0
LINE
  5
87
330
1F
100
AcDbEntity
  8
0
  6
Continuous
 62
     7
100
AcDbLine
 10
-609.8014021055483
 20
1041.38598952014
 30
0.0
 11
-609.8014021055483
 21
1032.98421839391
 31
0.0
  0
LINE
  5
88
330
1F
100
AcDbEntity
  8
0
  6
Continuous
 62
     2
100
AcDbLine
 10
-615.8014021055483
 20
1032.98421839391
 30
0.0
 11
-610.8014021055483
 21
1032.98421839391
 31
0.0
  0
LINE
  5
89
330
1F
100
AcDbEntity
  8
0
  6
Continuous
 62
     2
100
AcDbLine
 10
-609.8014021055483
 20
1032.98421839391
 30
0.0
 11
-610.8014021055483
 21
1032.98421839391
 31
0.0
  0
LINE
  5
8A
330
1F
100
AcDbEntity
  8
0
  6
Continuous
 62
     7
100
AcDbLine
 10
-609.8014021055483
 20
1042.98421839391
 30
0.0
 11
-609.8014021055483
 21
1041.38598952014
 31
0.0
  0
LINE
  5
8B
330
1F
100
AcDbEntity
  8
0
  6
Continuous
 62
     2
100
AcDbLine
 10
-610.8014021055483
 20
1043.98421839391
 30
0.0
 11
-610.8014021055483
 21
1032.98421839391
 31
0.0
  0
LINE
  5
8C
330
1F
100
AcDbEntity
  8
0
  6
Continuous
 62
     7
100
AcDbLine
 10
-609.8014021055483
 20
1032.78598952014
 30
0.0
 11
-609.8014021055483
 21
1032.98421839391
 31
0.0
  0
LINE
  5
8D
330
1F
100
AcDbEntity
  8
0
  6
Continuous
 62
     7
100
AcDbLine
 10
-615.8014021055483
 20
1043.98421839391
 30
0.0
 11
-610.8014021055483
 21
1043.98421839391
 31
0.0
  0
LINE
  5
8E
330
1F
100
AcDbEntity
  8
0
  6
Continuous
 62
     7
100
AcDbLine
 10
-615.8014021055483
 20
1032.98421839391
 30
0.0
 11
-615.8014021055483
 21
1043.98421839391
 31
0.0
  0
LINE
  5
8F
330
1F
100
AcDbEntity
  8
0
  6
Continuous
 62
     7
100
AcDbLine
 10
-600.3014021055484
 20
1036.413012158096
 30
0.0
 11
-600.3014021055484
 21
1032.78598952014
 31
0.0
  0
LINE
  5
90
330
1F
100
AcDbEntity
  8
0
  6
Continuous
 62
     7
100
AcDbLine
 10
-581.801404846803
 20
1010.485989520193
 30
0.0
 11
-581.801404846803
 21
1017.285989520084
 31
0.0
  0
LINE
  5
91
330
1F
100
AcDbEntity
  8
0
  6
Continuous
 62
     2
100
AcDbLine
 10
-615.8014021055483
 20
1011.785989520138
 30
0.0
 11
-610.8014021055483
 21
1011.785989520138
 31
0.0
  0
LINE
  5
92
330
1F
100
AcDbEntity
  8
0
  6
Continuous
 62
     2
100
AcDbLine
 10
-610.8014021055483
 20
1011.785989520138
 30
0.0
 11
-609.8014021055483
 21
1011.785989520138
 31
0.0
  0
LINE
  5
93
330
1F
100
AcDbEntity
  8
0
  6
Continuous
 62
     7
100
AcDbLine
 10
-586.2556805081624
 20
1035.922524751848
 30
0.0
 11
-600.3014021055484
 21
1036.413012158096
 31
0.0
  0
LINE
  5
94
330
1F
100
AcDbEntity
  8
0
  6
Continuous
 62
     7
100
AcDbLine
 10
-609.8014021055483
 20
1041.38598952014
 30
0.0
 11
-601.3014021055484
 21
1041.38598952014
 31
0.0
  0
LINE
  5
95
330
1F
100
AcDbEntity
  8
0
  6
Continuous
 62
     7
100
AcDbLine
 10
-600.3014021055484
 20
1040.38598952014
 30
0.0
 11
-600.3014021055484
 21
1036.413012158096
 31
0.0
  0
LINE
  5
96
330
1F
100
AcDbEntity
  8
0
  6
Continuous
 62
     7
100
AcDbLine
 10
-609.8014021055483
 20
1011.785989520138
 30
0.0
 11
-609.8014021055483
 21
1032.78598952014
 31
0.0
  0
LINE
  5
97
330
1F
100
AcDbEntity
  8
0
  6
Continuous
 62
     7
100
AcDbLine
 10
-609.8014021055483
 20
1004.785989520138
 30
0.0
 11
-609.8014021055483
 21
1011.785989520138
 31
0.0
  0
LINE
  5
98
330
1F
100
AcDbEntity
  8
0
  6
Continuous
 62
     7
100
AcDbLine
 10
-609.8014021055483
 20
1004.785989520138
 30
0.0
 11
-609.8014021055483
 21
997.7859895201378
 31
0.0
  0
LINE
  5
99
330
1F
100
AcDbEntity
  8
0
  6
Continuous
 62
     7
100
AcDbLine
 10
-615.8014021055483
 20
1005.785989520138
 30
0.0
 11
-615.8014021055483
 21
997.7859895201378
 31
0.0
  0
LINE
  5
9A
330
1F
100
AcDbEntity
  8
0
  6
Continuous
 62
     7
100
AcDbLine
 10
-615.8014021055483
 20
1005.785989520138
 30
0.0
 11
-615.8014021055483
 21
1011.785989520138
 31
0.0
  0
LINE
  5
9B
330
1F
100
AcDbEntity
  8
0
  6
Continuous
 62
     7
100
AcDbLine
 10
-600.3014021055484
 20
1029.916971782472
 30
0.0
 11
-600.3014021055484
 21
997.8550682122344
 31
0.0
  0
LINE
  5
9C
330
1F
100
AcDbEntity
  8
0
  6
Continuous
 62
     2
100
AcDbLine
 10
-609.8014021055483
 20
1032.78598952014
 30
0.0
 11
-601.3014021055484
 21
1032.78598952014
 31
0.0
  0
LINE
  5
9D
330
1F
100
AcDbEntity
  8
0
  6
Continuous
 62
     7
100
AcDbLine
 10
-615.8014021055483
 20
983.7859895201378
 30
0.0
 11
-615.8014021055483
 21
991.7859895201378
 31
0.0
  0
LINE
  5
9E
330
1F
100
AcDbEntity
  8
0
  6
Continuous
 62
     2
100
AcDbLine
 10
-585.6284820390778
 20
1029.40458212306
 30
0.0
 11
-600.3014021055484
 21
1029.916971782472
 31
0.0
  0
LINE
  5
9F
330
1F
100
AcDbEntity
  8
0
  6
Continuous
 62
     2
100
AcDbLine
 10
-610.8014021055483
 20
1011.785989520138
 30
0.0
 11
-610.8014021055483
 21
1032.98421839391
 31
0.0
  0
LINE
  5
A0
330
1F
100
AcDbEntity
  8
0
  6
Continuous
 62
     2
100
AcDbLine
 10
-601.3014021055484
 20
1041.38598952014
 30
0.0
 11
-601.3014021055484
 21
1032.78598952014
 31
0.0
  0
LINE
  5
A1
330
1F
100
AcDbEntity
  8
0
  6
Continuous
 62
     2
100
AcDbLine
 10
-600.3014021055484
 20
1032.78598952014
 30
0.0
 11
-601.3014021055484
 21
1032.78598952014
 31
0.0
  0
LINE
  5
A2
330
1F
100
AcDbEntity
  8
0
  6
Continuous
 62
     7
100
AcDbLine
 10
-600.3014021055484
 20
1032.78598952014
 30
0.0
 11
-600.3014021055484
 21
1029.916971782472
 31
0.0
  0
LINE
  5
A3
330
1F
100
AcDbEntity
  8
0
  6
Continuous
 62
     2
100
AcDbLine
 10
-601.3014021055484
 20
1032.78598952014
 30
0.0
 11
-601.3014021055484
 21
994.9859895203718
 31
0.0
  0
LINE
  5
A4
330
1F
100
AcDbEntity
  8
0
  6
Continuous
 62
     2
100
AcDbLine
 10
-615.8014021055483
 20
991.7859895201378
 30
0.0
 11
-610.8014021055483
 21
991.7859895201378
 31
0.0
  0
LINE
  5
A5
330
1F
100
AcDbEntity
  8
0
  6
Continuous
 62
     7
100
AcDbLine
 10
-615.8014021055483
 20
1032.98421839391
 30
0.0
 11
-615.8014021055483
 21
1011.785989520138
 31
0.0
  0
LINE
  5
A6
330
1F
100
AcDbEntity
  8
0
  6
Continuous
 62
     2
100
AcDbLine
 10
-610.8014021055483
 20
1005.785989520138
 30
0.0
 11
-610.8014021055483
 21
1011.785989520138
 31
0.0
  0
LINE
  5
A7
330
1F
100
AcDbEntity
  8
0
  6
Continuous
 62
     7
100
AcDbLine
 10
-615.8014021055483
 20
1005.785989520138
 30
0.0
 11
-610.8014021055483
 21
1005.785989520138
 31
0.0
  0
LINE
  5
A8
330
1F
100
AcDbEntity
  8
0
  6
Continuous
 62
     2
100
AcDbLine
 10
-610.8014021055483
 20
1005.785989520138
 30
0.0
 11
-610.8014021055483
 21
997.7859895201378
 31
0.0
  0
LINE
  5
A9
330
1F
100
AcDbEntity
  8
0
  6
Continuous
 62
     2
100
AcDbLine
 10
-615.8014021055483
 20
997.7859895201378
 30
0.0
 11
-610.8014021055483
 21
997.7859895201378
 31
0.0
  0
LINE
  5
AA
330
1F
100
AcDbEntity
  8
0
  6
Continuous
 62
     7
100
AcDbLine
 10
-615.8014021055483
 20
997.7859895201378
 30
0.0
 11
-615.8014021055483
 21
991.7859895201378
 31
0.0
  0
LINE
  5
AB
330
1F
100
AcDbEntity
  8
0
  6
Continuous
 62
     7
100
AcDbLine
 10
-615.8014021055483
 20
983.7859895201378
 30
0.0
 11
-610.8014021055483
 21
983.7859895201378
 31
0.0
  0
LINE
  5
AC
330
1F
100
AcDbEntity
  8
0
  6
Continuous
 62
     2
100
AcDbLine
 10
-610.8014021055483
 20
991.7859895201378
 30
0.0
 11
-610.8014021055483
 21
983.7859895201378
 31
0.0
  0
LINE
  5
AD
330
1F
100
AcDbEntity
  8
0
  6
Continuous
 62
     2
100
AcDbLine
 10
-763.0324136300458
 20
997.8550682122326
 30
0.0
 11
-763.5448034979953
 21
998.3674580801822
 31
0.0
  0
LINE
  5
AE
330
1F
100
AcDbEntity
  8
0
  6
Continuous
 62
     7
100
AcDbLine
 10
-763.0324136300458
 20
997.8550682122326
 30
0.0
 11
-763.0324136300458
 21
1029.91697178247
 31
0.0
  0
LINE
  5
AF
330
1F
100
AcDbEntity
  8
0
  6
Continuous
 62
     2
100
AcDbLine
 10
-766.1594362680037
 20
984.7859895201358
 30
0.0
 11
-766.1594362680037
 21
983.7859895201358
 31
0.0
  0
LINE
  5
B0
330
1F
100
AcDbEntity
  8
0
  6
Continuous
 62
     7
100
AcDbLine
 10
-845.0864589059681
 20
1029.91697178247
 30
0.0
 11
-845.0864589059681
 21
997.8550682122325
 31
0.0
  0
LINE
  5
B1
330
1F
100
AcDbEntity
  8
0
  6
Continuous
 62
     2
100
AcDbLine
 10
-845.0864589059681
 20
997.8550682122325
 30
0.0
 11
-844.5740686136558
 21
998.3674585045449
 31
0.0
  0
LINE
  5
B2
330
1F
100
AcDbEntity
  8
0
  6
Continuous
 62
     2
100
AcDbLine
 10
-849.6594362680103
 20
1032.785989520138
 30
0.0
 11
-849.6594362680103
 21
994.9859895203698
 31
0.0
  0
LINE
  5
B3
330
1F
100
AcDbEntity
  8
0
  6
DASHED
 62
     3
100
AcDbLine
 10
-845.0953739786198
 20
1018.885989520107
 30
0.0
 11
-845.0953739786198
 21
1008.885989520108
 31
0.0
  0
LINE
  5
B4
330
1F
100
AcDbEntity
  8
0
  6
Continuous
 62
     7
100
AcDbLine
 10
-850.6594362680103
 20
1032.785989520138
 30
0.0
 11
-850.6594362680103
 21
994.9859895203698
 31
0.0
  0
LINE
  5
B5
330
1F
100
AcDbEntity
  8
0
  6
Continuous
 62
     2
100
AcDbLine
 10
-756.1594362680038
 20
1015.984218393908
 30
0.0
 11
-756.1594362680038
 21
994.7859895201358
 31
0.0
  0
LINE
  5
B6
330
1F
100
AcDbEntity
  8
0
  6
Continuous
 62
     2
100
AcDbLine
 10
-758.4594362680039
 20
994.98598952037
 30
0.0
 11
-757.4594362680036
 21
994.98598952037
 31
0.0
  0
LINE
  5
B7
330
1F
100
AcDbEntity
  8
0
  6
Continuous
 62
     7
100
AcDbLine
 10
-755.1594362680038
 20
1015.984218393908
 30
0.0
 11
-755.1594362680038
 21
994.7859895201358
 31
0.0
  0
LINE
  5
B8
330
1F
100
AcDbEntity
  8
0
  6
Continuous
 62
     2
100
AcDbLine
 10
-749.1594362680038
 20
1021.984218393908
 30
0.0
 11
-749.1594362680038
 21
1022.984218393908
 31
0.0
  0
LINE
  5
B9
330
1F
100
AcDbEntity
  8
0
  6
Continuous
 62
     7
100
AcDbLine
 10
-757.4594362680036
 20
994.98598952037
 30
0.0
 11
-757.4594362680036
 21
1032.785989520138
 31
0.0
  0
LINE
  5
BA
330
1F
100
AcDbEntity
  8
0
  6
Continuous
 62
     2
100
AcDbLine
 10
-758.4594362680039
 20
994.98598952037
 30
0.0
 11
-758.4594362680036
 21
1032.785989520138
 31
0.0
  0
LINE
  5
BB
330
1F
100
AcDbEntity
  8
0
  6
Continuous
 62
     2
100
AcDbLine
 10
-763.5448033562055
 20
1029.40458205631
 30
0.0
 11
-763.0324136300458
 21
1029.91697178247
 31
0.0
  0
LINE
  5
BC
330
1F
100
AcDbEntity
  8
0
  6
Continuous
 62
     2
100
AcDbLine
 10
-738.0094362685259
 20
1029.984218393908
 30
0.0
 11
-737.0094362685261
 21
1029.984218393908
 31
0.0
  0
LINE
  5
BD
330
1F
100
AcDbEntity
  8
0
  6
Continuous
 62
     2
100
AcDbLine
 10
-758.4594362680036
 20
1032.785989520138
 30
0.0
 11
-757.4594362680036
 21
1032.785989520138
 31
0.0
  0
LINE
  5
BE
330
1F
100
AcDbEntity
  8
0
  6
Continuous
 62
     2
100
AcDbLine
 10
-844.5740692465561
 20
1029.404582123058
 30
0.0
 11
-845.0864589059681
 21
1029.91697178247
 31
0.0
  0
LINE
  5
BF
330
1F
100
AcDbEntity
  8
0
  6
Continuous
 62
     2
100
AcDbLine
 10
-738.0094362685261
 20
1035.984218393908
 30
0.0
 11
-738.0094362685259
 21
1029.984218393908
 31
0.0
  0
LINE
  5
C0
330
1F
100
AcDbEntity
  8
0
  6
Continuous
 62
     2
100
AcDbLine
 10
-851.9576651402688
 20
1032.984218393908
 30
0.0
 11
-852.9576651402688
 21
1032.984218393908
 31
0.0
  0
LINE
  5
C1
330
1F
100
AcDbEntity
  8
0
  6
Continuous
 62
     2
100
AcDbLine
 10
-842.0594362680099
 20
987.3859895203695
 30
0.0
 11
-766.0594362680041
 21
987.3859895203695
 31
0.0
  0
LINE
  5
C2
330
1F
100
AcDbEntity
  8
0
  6
Continuous
 62
     2
100
AcDbLine
 10
-756.1594362680038
 20
994.7859895201358
 30
0.0
 11
-755.1594362680038
 21
994.7859895201358
 31
0.0
  0
LINE
  5
C3
330
1F
100
AcDbEntity
  8
0
  6
Continuous
 62
     7
100
AcDbLine
 10
-838.590418530344
 20
991.3590278366083
 30
0.0
 11
-769.5284540056699
 21
991.3590278366083
 31
0.0
  0
LINE
  5
C4
330
1F
100
AcDbEntity
  8
0
  6
Continuous
 62
     2
100
AcDbLine
 10
-769.5284540056699
 20
991.3590278366083
 30
0.0
 11
-770.0189419223304
 21
991.8495157532691
 31
0.0
  0
LINE
  5
C5
330
1F
100
AcDbEntity
  8
0
  6
Continuous
 62
     2
100
AcDbLine
 10
-838.590418530344
 20
991.3590278366083
 30
0.0
 11
-838.0999305641543
 21
991.849515802798
 31
0.0
  0
LINE
  5
C6
330
1F
100
AcDbEntity
  8
0
  6
Continuous
 62
     2
100
AcDbLine
 10
-842.0594362680099
 20
987.3859895203695
 30
0.0
 11
-842.0594362680099
 21
986.3859895203695
 31
0.0
  0
LINE
  5
C7
330
1F
100
AcDbEntity
  8
0
  6
Continuous
 62
     2
100
AcDbLine
 10
-766.0594362680041
 20
987.3859895203695
 30
0.0
 11
-766.0594362680041
 21
986.3859895203695
 31
0.0
  0
LINE
  5
C8
330
1F
100
AcDbEntity
  8
0
  6
Continuous
 62
     7
100
AcDbLine
 10
-842.0594362680099
 20
986.3859895203695
 30
0.0
 11
-766.0594362680041
 21
986.3859895203695
 31
0.0
  0
LINE
  5
C9
330
1F
100
AcDbEntity
  8
0
  6
Continuous
 62
     2
100
AcDbLine
 10
-797.3380225747219
 20
984.7859895201358
 30
0.0
 11
-766.1594362680037
 21
984.7859895201358
 31
0.0
  0
LINE
  5
CA
330
1F
100
AcDbEntity
  8
0
  6
Continuous
 62
     2
100
AcDbLine
 10
-863.1076651402689
 20
984.7859895201358
 30
0.0
 11
-810.7820486126492
 21
984.7859895201358
 31
0.0
  0
LINE
  5
CB
330
1F
100
AcDbEntity
  8
0
  6
Continuous
 62
     2
100
AcDbLine
 10
-863.1076651402689
 20
984.7859895201358
 30
0.0
 11
-863.1076651402689
 21
983.7859895201358
 31
0.0
  0
LINE
  5
CC
330
1F
100
AcDbEntity
  8
0
  6
Continuous
 62
     7
100
AcDbLine
 10
-863.1076651402689
 20
983.7859895201358
 30
0.0
 11
-810.7820486126492
 21
983.7859895201358
 31
0.0
  0
LINE
  5
CD
330
1F
100
AcDbEntity
  8
0
  6
Continuous
 62
     7
100
AcDbLine
 10
-797.3380225747219
 20
983.7859895201358
 30
0.0
 11
-766.1594362680037
 21
983.7859895201358
 31
0.0
  0
LINE
  5
CE
330
1F
100
AcDbEntity
  8
0
  6
Continuous
 62
     2
100
AcDbLine
 10
-849.6594362680103
 20
994.9859895203698
 30
0.0
 11
-850.6594362680103
 21
994.9859895203698
 31
0.0
  0
LINE
  5
CF
330
1F
100
AcDbEntity
  8
0
  6
Continuous
 62
     2
100
AcDbLine
 10
-863.1076651402689
 20
1004.785989520136
 30
0.0
 11
-858.9576651402688
 21
1004.785989520136
 31
0.0
  0
LINE
  5
D0
330
1F
100
AcDbEntity
  8
0
  6
Continuous
 62
     2
100
AcDbLine
 10
-870.1076651402689
 20
991.7859895201358
 30
0.0
 11
-870.1076651402689
 21
997.7859895201358
 31
0.0
  0
LINE
  5
D1
330
1F
100
AcDbEntity
  8
0
  6
Continuous
 62
     2
100
AcDbLine
 10
-863.1076651402689
 20
1004.785989520136
 30
0.0
 11
-863.1076651402689
 21
1005.785989520136
 31
0.0
  0
LINE
  5
D2
330
1F
100
AcDbEntity
  8
0
  6
Continuous
 62
     7
100
AcDbLine
 10
-863.1076651402689
 20
1005.785989520136
 30
0.0
 11
-858.9576651402688
 21
1005.785989520136
 31
0.0
  0
LINE
  5
D3
330
1F
100
AcDbEntity
  8
0
  6
Continuous
 62
     2
100
AcDbLine
 10
-858.9576651402688
 20
1005.785989520136
 30
0.0
 11
-858.9576651402688
 21
1004.785989520136
 31
0.0
  0
LINE
  5
D4
330
1F
100
AcDbEntity
  8
0
  6
Continuous
 62
     2
100
AcDbLine
 10
-870.1076651402689
 20
997.7859895201358
 30
0.0
 11
-871.1076651402689
 21
997.7859895201358
 31
0.0
  0
LINE
  5
D5
330
1F
100
AcDbEntity
  8
0
  6
Continuous
 62
     7
100
AcDbLine
 10
-871.1076651402689
 20
991.7859895201358
 30
0.0
 11
-871.1076651402689
 21
997.7859895201358
 31
0.0
  0
LINE
  5
D6
330
1F
100
AcDbEntity
  8
0
  6
Continuous
 62
     2
100
AcDbLine
 10
-870.1076651402689
 20
991.7859895201358
 30
0.0
 11
-871.1076651402689
 21
991.7859895201358
 31
0.0
  0
LINE
  5
D7
330
1F
100
AcDbEntity
  8
0
  6
Continuous
 62
     2
100
AcDbLine
 10
-755.1594362680038
 20
1015.984218393908
 30
0.0
 11
-756.1594362680038
 21
1015.984218393908
 31
0.0
  0
LINE
  5
D8
330
1F
100
AcDbEntity
  8
0
  6
Continuous
 62
     2
100
AcDbLine
 10
-851.9576651402688
 20
1011.785989520136
 30
0.0
 11
-851.9576651402688
 21
1032.984218393908
 31
0.0
  0
LINE
  5
D9
330
1F
100
AcDbEntity
  8
0
  6
Continuous
 62
     7
100
AcDbLine
 10
-852.9576651402688
 20
1011.785989520136
 30
0.0
 11
-852.9576651402688
 21
1032.984218393908
 31
0.0
  0
LINE
  5
DA
330
1F
100
AcDbEntity
  8
0
  6
Continuous
 62
     2
100
AcDbLine
 10
-852.9576651402688
 20
1011.785989520136
 30
0.0
 11
-851.9576651402688
 21
1011.785989520136
 31
0.0
  0
LINE
  5
DB
330
1F
100
AcDbEntity
  8
0
  6
Continuous
 62
     2
100
AcDbLine
 10
-745.0094362685259
 20
1022.984218393908
 30
0.0
 11
-745.0094362685259
 21
1021.984218393908
 31
0.0
  0
LINE
  5
DC
330
1F
100
AcDbEntity
  8
0
  6
Continuous
 62
     2
100
AcDbLine
 10
-749.1594362680038
 20
1022.984218393908
 30
0.0
 11
-745.0094362685259
 21
1022.984218393908
 31
0.0
  0
LINE
  5
DD
330
1F
100
AcDbEntity
  8
0
  6
Continuous
 62
     7
100
AcDbLine
 10
-737.0094362685261
 20
1035.984218393908
 30
0.0
 11
-737.0094362685261
 21
1029.984218393908
 31
0.0
  0
LINE
  5
DE
330
1F
100
AcDbEntity
  8
0
  6
Continuous
 62
     7
100
AcDbLine
 10
-749.1594362680038
 20
1021.984218393908
 30
0.0
 11
-745.0094362685259
 21
1021.984218393908
 31
0.0
  0
LINE
  5
DF
330
1F
100
AcDbEntity
  8
0
  6
Continuous
 62
     2
100
AcDbLine
 10
-766.0594362680041
 20
1040.385989520138
 30
0.0
 11
-766.0594362680041
 21
1041.385989520138
 31
0.0
  0
LINE
  5
E0
330
1F
100
AcDbEntity
  8
0
  6
Continuous
 62
     2
100
AcDbLine
 10
-842.05943626801
 20
1040.385989520138
 30
0.0
 11
-766.0594362680041
 21
1040.385989520138
 31
0.0
  0
LINE
  5
E1
330
1F
100
AcDbEntity
  8
0
  6
Continuous
 62
     7
100
AcDbLine
 10
-842.05943626801
 20
1041.385989520138
 30
0.0
 11
-766.0594362680041
 21
1041.385989520138
 31
0.0
  0
LINE
  5
E2
330
1F
100
AcDbEntity
  8
0
  6
Continuous
 62
     2
100
AcDbLine
 10
-738.0094362685261
 20
1035.984218393908
 30
0.0
 11
-737.0094362685261
 21
1035.984218393908
 31
0.0
  0
LINE
  5
E3
330
1F
100
AcDbEntity
  8
0
  6
Continuous
 62
     2
100
AcDbLine
 10
-838.0999311240964
 20
1035.922524751847
 30
0.0
 11
-838.590418530344
 21
1036.413012158094
 31
0.0
  0
LINE
  5
E4
330
1F
100
AcDbEntity
  8
0
  6
Continuous
 62
     2
100
AcDbLine
 10
-770.0189412050329
 20
1035.922524958731
 30
0.0
 11
-769.5284540056698
 21
1036.413012158094
 31
0.0
  0
LINE
  5
E5
330
1F
100
AcDbEntity
  8
0
  6
Continuous
 62
     7
100
AcDbLine
 10
-769.5284540056698
 20
1036.413012158094
 30
0.0
 11
-838.590418530344
 21
1036.413012158094
 31
0.0
  0
LINE
  5
E6
330
1F
100
AcDbEntity
  8
0
  6
Continuous
 62
     2
100
AcDbLine
 10
-842.05943626801
 20
1040.385989520138
 30
0.0
 11
-842.05943626801
 21
1041.385989520138
 31
0.0
  0
LINE
  5
E7
330
1F
100
AcDbEntity
  8
0
  6
Continuous
 62
     2
100
AcDbLine
 10
-849.6594362680103
 20
1032.785989520138
 30
0.0
 11
-850.6594362680103
 21
1032.785989520138
 31
0.0
  0
LINE
  5
E8
330
1F
100
AcDbEntity
  8
0
  6
Continuous
 62
     2
100
AcDbLine
 10
-797.3380225747219
 20
1042.984218393908
 30
0.0
 11
-841.9576651402688
 21
1042.984218393908
 31
0.0
  0
LINE
  5
E9
330
1F
100
AcDbEntity
  8
0
  6
Continuous
 62
     2
100
AcDbLine
 10
-745.0094362685261
 20
1042.984218393908
 30
0.0
 11
-797.3380225747219
 21
1042.984218393908
 31
0.0
  0
LINE
  5
EA
330
1F
100
AcDbEntity
  8
0
  6
Continuous
 62
     2
100
AcDbLine
 10
-841.9576651402688
 20
1042.984218393908
 30
0.0
 11
-841.9576651402688
 21
1043.984218393908
 31
0.0
  0
LINE
  5
EB
330
1F
100
AcDbEntity
  8
0
  6
Continuous
 62
     2
100
AcDbLine
 10
-745.0094362685261
 20
1042.984218393908
 30
0.0
 11
-745.0094362685261
 21
1043.984218393908
 31
0.0
  0
LINE
  5
EC
330
1F
100
AcDbEntity
  8
0
  6
Continuous
 62
     7
100
AcDbLine
 10
-745.0094362685261
 20
1043.984218393908
 30
0.0
 11
-841.9576651402688
 21
1043.984218393908
 31
0.0
  0
LINE
  5
ED
330
1F
100
AcDbEntity
  8
0
  6
Continuous
 62
     7
100
AcDbLine
 10
-858.9396651402678
 20
886.9450184306646
 30
0.0
 11
-851.9396651402682
 21
886.9450184306646
 31
0.0
  0
LINE
  5
EE
330
1F
100
AcDbEntity
  8
0
  6
Continuous
 62
     7
100
AcDbLine
 10
-842.0414362680095
 20
886.9450184306646
 30
0.0
 11
-850.6414362680097
 21
886.9450184306646
 31
0.0
  0
LINE
  5
EF
330
1F
100
AcDbEntity
  8
0
  6
Continuous
 62
     7
100
AcDbLine
 10
-844.5560692465556
 20
862.772098364194
 30
0.0
 11
-845.0684589059676
 21
877.4450184306647
 31
0.0
  0
LINE
  5
F0
330
1F
100
AcDbEntity
  8
0
  6
Continuous
 62
     2
100
AcDbLine
 10
-838.081931124096
 20
863.3992968332789
 30
0.0
 11
-838.5724185303435
 21
877.4450184306647
 31
0.0
  0
LINE
  5
F1
330
1F
100
AcDbEntity
  8
0
  6
Continuous
 62
     7
100
AcDbLine
 10
-842.0414362680095
 20
877.4450184306647
 30
0.0
 11
-838.5724185303435
 21
877.4450184306647
 31
0.0
  0
LINE
  5
F2
330
1F
100
AcDbEntity
  8
0
  6
Continuous
 62
     2
100
AcDbLine
 10
-842.0414362680095
 20
877.4450184306647
 30
0.0
 11
-842.0414362680095
 21
878.4450184306647
 31
0.0
  0
LINE
  5
F3
330
1F
100
AcDbEntity
  8
0
  6
Continuous
 62
     2
100
AcDbLine
 10
-842.0414362680095
 20
886.9450184306646
 30
0.0
 11
-842.0414362680095
 21
878.4450184306647
 31
0.0
  0
LINE
  5
F4
330
1F
100
AcDbEntity
  8
0
  6
Continuous
 62
     7
100
AcDbLine
 10
-844.5560692465556
 20
862.772098364194
 30
0.0
 11
-844.523531082725
 21
861.8403272633797
 31
0.0
  0
LINE
  5
F5
330
1F
100
AcDbEntity
  8
0
  6
Continuous
 62
     7
100
AcDbLine
 10
-842.0414362680095
 20
877.4450184306647
 30
0.0
 11
-845.0684589059676
 21
877.4450184306647
 31
0.0
  0
LINE
  5
F6
330
1F
100
AcDbEntity
  8
0
  6
Continuous
 62
     7
100
AcDbLine
 10
-841.9396651402682
 20
886.9450184306646
 30
0.0
 11
-842.0414362680095
 21
886.9450184306646
 31
0.0
  0
LINE
  5
F7
330
1F
100
AcDbEntity
  8
0
  6
Continuous
 62
     7
100
AcDbLine
 10
-845.0684589059676
 20
877.4450184306647
 30
0.0
 11
-849.6414362680097
 21
877.4450184306647
 31
0.0
  0
LINE
  5
F8
330
1F
100
AcDbEntity
  8
0
  6
Continuous
 62
     7
100
AcDbLine
 10
-850.6414362680097
 20
886.9450184306646
 30
0.0
 11
-850.6414362680097
 21
878.4450184306647
 31
0.0
  0
LINE
  5
F9
330
1F
100
AcDbEntity
  8
0
  6
Continuous
 62
     7
100
AcDbLine
 10
-850.6414362680097
 20
886.9450184306646
 30
0.0
 11
-851.9396651402682
 21
886.9450184306646
 31
0.0
  0
LINE
  5
FA
330
1F
100
AcDbEntity
  8
0
  6
Continuous
 62
     2
100
AcDbLine
 10
-841.9396651402682
 20
886.9450184306646
 30
0.0
 11
-841.9396651402682
 21
887.9450184306646
 31
0.0
  0
LINE
  5
FB
330
1F
100
AcDbEntity
  8
0
  6
Continuous
 62
     2
100
AcDbLine
 10
-863.0896651402678
 20
886.9450184306646
 30
0.0
 11
-863.0896651402678
 21
887.9450184306646
 31
0.0
  0
LINE
  5
FC
330
1F
100
AcDbEntity
  8
0
  6
Continuous
 62
     7
100
AcDbLine
 10
-863.0896651402678
 20
886.9450184306646
 30
0.0
 11
-858.9396651402678
 21
886.9450184306646
 31
0.0
  0
LINE
  5
FD
330
1F
100
AcDbEntity
  8
0
  6
Continuous
 62
     2
100
AcDbLine
 10
-858.9396651402678
 20
887.9450184306646
 30
0.0
 11
-858.9396651402678
 21
886.9450184306646
 31
0.0
  0
LINE
  5
FE
330
1F
100
AcDbEntity
  8
0
  6
Continuous
 62
     2
100
AcDbLine
 10
-858.9396651402678
 20
887.9450184306646
 30
0.0
 11
-852.9396651402682
 21
887.9450184306646
 31
0.0
  0
LINE
  5
FF
330
1F
100
AcDbEntity
  8
0
  6
Continuous
 62
     2
100
AcDbLine
 10
-770.0009412050324
 20
863.3993027576745
 30
0.0
 11
-769.5104540056693
 21
877.4450184306647
 31
0.0
  0
LINE
  5
100
330
1F
100
AcDbEntity
  8
0
  6
Continuous
 62
     7
100
AcDbLine
 10
-769.5104540056693
 20
877.4450184306647
 30
0.0
 11
-766.0414362680036
 21
877.4450184306647
 31
0.0
  0
LINE
  5
101
330
1F
100
AcDbEntity
  8
0
  6
Continuous
 62
     7
100
AcDbLine
 10
-838.5724185303435
 20
877.4450184306647
 30
0.0
 11
-769.5104540056693
 21
877.4450184306647
 31
0.0
  0
LINE
  5
102
330
1F
100
AcDbEntity
  8
0
  6
Continuous
 62
     2
100
AcDbLine
 10
-842.0414362680095
 20
878.4450184306647
 30
0.0
 11
-850.6414362680097
 21
878.4450184306647
 31
0.0
  0
LINE
  5
103
330
1F
100
AcDbEntity
  8
0
  6
Continuous
 62
     2
100
AcDbLine
 10
-842.0414362680095
 20
878.4450184306647
 30
0.0
 11
-766.0414362680036
 21
878.4450184306647
 31
0.0
  0
LINE
  5
104
330
1F
100
AcDbEntity
  8
0
  6
Continuous
 62
     2
100
AcDbLine
 10
-766.0414362680036
 20
877.4450184306647
 30
0.0
 11
-766.0414362680036
 21
878.4450184306647
 31
0.0
  0
LINE
  5
105
330
1F
100
AcDbEntity
  8
0
  6
Continuous
 62
     7
100
AcDbLine
 10
-763.5268033562049
 20
862.772096452787
 30
0.0
 11
-763.0144136300453
 21
877.4450184306647
 31
0.0
  0
LINE
  5
106
330
1F
100
AcDbEntity
  8
0
  6
Continuous
 62
     7
100
AcDbLine
 10
-763.5593416102126
 20
861.840322769642
 30
0.0
 11
-763.5268033562049
 21
862.772096452787
 31
0.0
  0
LINE
  5
107
330
1F
100
AcDbEntity
  8
0
  6
Continuous
 62
     7
100
AcDbLine
 10
-841.5253499808376
 20
858.9450211719193
 30
0.0
 11
-766.5575167248667
 21
858.9450183928494
 31
0.0
  0
LINE
  5
108
330
1F
100
AcDbEntity
  8
0
  6
Continuous
 62
     7
100
AcDbLine
 10
-757.4414362680031
 20
886.9450184306646
 30
0.0
 11
-757.4414362680031
 21
878.4450184306647
 31
0.0
  0
LINE
  5
109
330
1F
100
AcDbEntity
  8
0
  6
Continuous
 62
     2
100
AcDbLine
 10
-766.0414362680036
 20
886.9450184306646
 30
0.0
 11
-766.0414362680036
 21
878.4450184306647
 31
0.0
  0
LINE
  5
10A
330
1F
100
AcDbEntity
  8
0
  6
Continuous
 62
     7
100
AcDbLine
 10
-744.9914362685256
 20
886.9450184306645
 30
0.0
 11
-757.4414362680031
 21
886.9450184306646
 31
0.0
  0
LINE
  5
10B
330
1F
100
AcDbEntity
  8
0
  6
Continuous
 62
     2
100
AcDbLine
 10
-744.9914362685256
 20
886.9450184306645
 30
0.0
 11
-744.9914362685254
 21
887.9450184306646
 31
0.0
  0
LINE
  5
10C
330
1F
100
AcDbEntity
  8
0
  6
Continuous
 62
     7
100
AcDbLine
 10
-757.4414362680031
 20
886.9450184306646
 30
0.0
 11
-766.0414362680036
 21
886.9450184306646
 31
0.0
  0
LINE
  5
10D
330
1F
100
AcDbEntity
  8
0
  6
Continuous
 62
     2
100
AcDbLine
 10
-757.4414362680031
 20
878.4450184306647
 30
0.0
 11
-766.0414362680036
 21
878.4450184306647
 31
0.0
  0
LINE
  5
10E
330
1F
100
AcDbEntity
  8
0
  6
Continuous
 62
     7
100
AcDbLine
 10
-758.4414362680031
 20
877.4450184306647
 30
0.0
 11
-763.0144136300453
 21
877.4450184306647
 31
0.0
  0
LINE
  5
10F
330
1F
100
AcDbEntity
  8
0
  6
Continuous
 62
     7
100
AcDbLine
 10
-763.0144136300453
 20
877.4450184306647
 30
0.0
 11
-766.0414362680036
 21
877.4450184306647
 31
0.0
  0
LINE
  5
110
330
1F
100
AcDbEntity
  8
0
  6
Continuous
 62
     7
100
AcDbLine
 10
-737.9914362685255
 20
886.9450184306645
 30
0.0
 11
-744.9914362685256
 21
886.9450184306645
 31
0.0
  0
LINE
  5
111
330
1F
100
AcDbEntity
  8
0
  6
Continuous
 62
     2
100
AcDbLine
 10
-736.9914362685255
 20
887.9450184306646
 30
0.0
 11
-744.9914362685254
 21
887.9450184306646
 31
0.0
  0
LINE
  5
112
330
1F
100
AcDbEntity
  8
0
  6
Continuous
 62
     7
100
AcDbLine
 10
-736.9914362685255
 20
892.9450184306645
 30
0.0
 11
-736.9914362685255
 21
887.9450184306646
 31
0.0
  0
LINE
  5
113
330
1F
100
AcDbEntity
  8
0
  6
Continuous
 62
     7
100
AcDbLine
 10
-736.9914362685255
 20
892.9450184306645
 30
0.0
 11
-744.9914362685255
 21
892.9450184306645
 31
0.0
  0
LINE
  5
114
330
1F
100
AcDbEntity
  8
0
  6
Continuous
 62
     7
100
AcDbLine
 10
-797.3200225747213
 20
892.9450184306645
 30
0.0
 11
-744.9914362685255
 21
892.9450184306645
 31
0.0
  0
LINE
  5
115
330
1F
100
AcDbEntity
  8
0
  6
Continuous
 62
     2
100
AcDbLine
 10
-744.9914362685255
 20
892.9450184306645
 30
0.0
 11
-744.9914362685254
 21
887.9450184306646
 31
0.0
  0
LINE
  5
116
330
1F
100
AcDbEntity
  8
0
  6
Continuous
 62
     7
100
AcDbLine
 10
-798.9246787037397
 20
890.3142848165431
 30
0.0
 11
-798.8143146218589
 21
891.575752044786
 31
0.0
  0
LINE
  5
117
330
1F
100
AcDbEntity
  8
0
  6
Continuous
 62
     7
100
AcDbLine
 10
-809.269756565511
 20
891.575752044786
 30
0.0
 11
-809.1593924836304
 21
890.314284816543
 31
0.0
  0
LINE
  5
118
330
1F
100
AcDbEntity
  8
0
  6
Continuous
 62
     7
100
AcDbLine
 10
-852.9396651402682
 20
892.9450184306645
 30
0.0
 11
-841.9396651402682
 21
892.9450184306645
 31
0.0
  0
LINE
  5
119
330
1F
100
AcDbEntity
  8
0
  6
Continuous
 62
     7
100
AcDbLine
 10
-858.9396651402678
 20
892.9450184306645
 30
0.0
 11
-852.9396651402682
 21
892.9450184306645
 31
0.0
  0
LINE
  5
11A
330
1F
100
AcDbEntity
  8
0
  6
Continuous
 62
     7
100
AcDbLine
 10
-863.0896651402678
 20
892.9450184306645
 30
0.0
 11
-858.9396651402678
 21
892.9450184306645
 31
0.0
  0
LINE
  5
11B
330
1F
100
AcDbEntity
  8
0
  6
Continuous
 62
     7
100
AcDbLine
 10
-841.9396651402682
 20
892.9450184306645
 30
0.0
 11
-810.7640486126487
 21
892.9450184306645
 31
0.0
  0
LINE
  5
11C
330
1F
100
AcDbEntity
  8
0
  6
Continuous
 62
     7
100
AcDbLine
 10
-800.4189707508773
 20
888.9450184306645
 30
0.0
 11
-807.6651004364927
 21
888.9450184306646
 31
0.0
  0
LINE
  5
11D
330
1F
100
AcDbEntity
  8
0
  6
Continuous
 62
     2
100
AcDbLine
 10
-841.9396651402682
 20
892.9450184306645
 30
0.0
 11
-841.9396651402682
 21
887.9450184306646
 31
0.0
  0
LINE
  5
11E
330
1F
100
AcDbEntity
  8
0
  6
Continuous
 62
     2
100
AcDbLine
 10
-841.9396651402682
 20
887.9450184306646
 30
0.0
 11
-852.9396651402682
 21
887.9450184306646
 31
0.0
  0
LINE
  5
11F
330
1F
100
AcDbEntity
  8
0
  6
Continuous
 62
     2
100
AcDbLine
 10
-744.9914362685254
 20
887.9450184306646
 30
0.0
 11
-841.9396651402682
 21
887.9450184306646
 31
0.0
  0
LINE
  5
120
330
1F
100
AcDbEntity
  8
0
  6
Continuous
 62
     7
100
AcDbLine
 10
-852.9396651402682
 20
892.9450184306645
 30
0.0
 11
-852.9396651402682
 21
887.9450184306646
 31
0.0
  0
LINE
  5
121
330
1F
100
AcDbEntity
  8
0
  6
Continuous
 62
     2
100
AcDbLine
 10
-863.0896651402678
 20
887.9450184306646
 30
0.0
 11
-858.9396651402678
 21
887.9450184306646
 31
0.0
  0
LINE
  5
122
330
1F
100
AcDbEntity
  8
0
  6
Continuous
 62
     2
100
AcDbLine
 10
-858.9396651402678
 20
892.9450184306645
 30
0.0
 11
-858.9396651402678
 21
887.9450184306646
 31
0.0
  0
LINE
  5
123
330
1F
100
AcDbEntity
  8
0
  6
Continuous
 62
     2
100
AcDbLine
 10
-863.0896651402678
 20
892.9450184306645
 30
0.0
 11
-863.0896651402678
 21
887.9450184306646
 31
0.0
  0
LINE
  5
124
330
1F
100
AcDbEntity
  8
0
  6
Continuous
 62
     7
100
AcDbLine
 10
-863.0896651402678
 20
886.9450184306646
 30
0.0
 11
-870.0896651402678
 21
886.9450184306646
 31
0.0
  0
LINE
  5
125
330
1F
100
AcDbEntity
  8
0
  6
Continuous
 62
     7
100
AcDbLine
 10
-766.0414362680036
 20
886.9450184306646
 30
0.0
 11
-841.9396651402682
 21
886.9450184306646
 31
0.0
  0
LINE
  5
126
330
1F
100
AcDbEntity
  8
0
  6
Continuous
 62
     2
100
AcDbLine
 10
-863.0896651402678
 20
887.9450184306646
 30
0.0
 11
-871.0896651402678
 21
887.9450184306646
 31
0.0
  0
LINE
  5
127
330
1F
100
AcDbEntity
  8
0
  6
Continuous
 62
     7
100
AcDbLine
 10
-863.0896651402678
 20
892.9450184306645
 30
0.0
 11
-871.0896651402678
 21
892.9450184306645
 31
0.0
  0
LINE
  5
128
330
1F
100
AcDbEntity
  8
0
  6
Continuous
 62
     7
100
AcDbLine
 10
-871.0896651402678
 20
892.9450184306645
 30
0.0
 11
-871.0896651402678
 21
887.9450184306646
 31
0.0
  0
LINE
  5
129
330
1F
100
AcDbEntity
  8
0
  6
Continuous
 62
     2
100
AcDbLine
 10
-798.6438202943126
 20
984.7859895201358
 30
0.0
 11
-798.5334562124318
 21
984.7859895201358
 31
0.0
  0
LINE
  5
12A
330
1F
100
AcDbEntity
  8
0
  6
Continuous
 62
     2
100
AcDbLine
 10
-798.5334562124318
 20
984.7859895201358
 30
0.0
 11
-797.3380225747219
 21
984.7859895201358
 31
0.0
  0
LINE
  5
12B
330
1F
100
AcDbEntity
  8
0
  6
Continuous
 62
     2
100
AcDbLine
 10
-807.6831004364932
 20
984.7859895201358
 30
0.0
 11
-800.4369707508779
 21
984.7859895201358
 31
0.0
  0
LINE
  5
12C
330
1F
100
AcDbEntity
  8
0
  6
Continuous
 62
     2
100
AcDbLine
 10
-809.4762508930585
 20
984.7859895201358
 30
0.0
 11
-807.6831004364932
 21
984.7859895201358
 31
0.0
  0
LINE
  5
12D
330
1F
100
AcDbEntity
  8
0
  6
Continuous
 62
     2
100
AcDbLine
 10
-810.7820486126492
 20
984.7859895201358
 30
0.0
 11
-809.586614974939
 21
984.7859895201358
 31
0.0
  0
LINE
  5
12E
330
1F
100
AcDbEntity
  8
0
  6
Continuous
 62
     2
100
AcDbLine
 10
-809.586614974939
 20
984.7859895201358
 30
0.0
 11
-809.4762508930585
 21
984.7859895201358
 31
0.0
  0
LINE
  5
12F
330
1F
100
AcDbEntity
  8
0
  6
Continuous
 62
     2
100
AcDbLine
 10
-800.4369707508779
 20
984.7859895201358
 30
0.0
 11
-798.6438202943126
 21
984.7859895201358
 31
0.0
  0
LINE
  5
130
330
1F
100
AcDbEntity
  8
0
  6
Continuous
 62
     7
100
AcDbLine
 10
-798.8323146218594
 20
983.7859895201358
 30
0.0
 11
-797.3380225747219
 21
983.7859895201358
 31
0.0
  0
LINE
  5
131
330
1F
100
AcDbEntity
  8
0
  6
Continuous
 62
     7
100
AcDbLine
 10
-798.9426787037403
 20
983.7859895201358
 30
0.0
 11
-798.8323146218594
 21
983.7859895201358
 31
0.0
  0
LINE
  5
132
330
1F
100
AcDbEntity
  8
0
  6
Continuous
 62
     7
100
AcDbLine
 10
-807.6831004364932
 20
983.7859895201358
 30
0.0
 11
-800.4369707508779
 21
983.7859895201358
 31
0.0
  0
LINE
  5
133
330
1F
100
AcDbEntity
  8
0
  6
Continuous
 62
     7
100
AcDbLine
 10
-800.4369707508779
 20
983.7859895201358
 30
0.0
 11
-798.9426787037403
 21
983.7859895201358
 31
0.0
  0
LINE
  5
134
330
1F
100
AcDbEntity
  8
0
  6
Continuous
 62
     7
100
AcDbLine
 10
-809.1773924836308
 20
983.7859895201358
 30
0.0
 11
-807.6831004364932
 21
983.7859895201358
 31
0.0
  0
LINE
  5
135
330
1F
100
AcDbEntity
  8
0
  6
Continuous
 62
     7
100
AcDbLine
 10
-810.7820486126492
 20
983.7859895201358
 30
0.0
 11
-809.2877565655115
 21
983.7859895201358
 31
0.0
  0
LINE
  5
136
330
1F
100
AcDbEntity
  8
0
  6
Continuous
 62
     7
100
AcDbLine
 10
-809.2877565655115
 20
983.7859895201358
 30
0.0
 11
-809.1773924836308
 21
983.7859895201358
 31
0.0
  0
LINE
  5
137
330
1F
100
AcDbEntity
  8
0
  6
Continuous
 62
     2
100
AcDbLine
 10
-831.2621315602006
 20
1029.927905538132
 30
0.0
 11
-822.8610278840753
 21
1025.125795391073
 31
0.0
  0
LINE
  5
138
330
1F
100
AcDbEntity
  8
0
  6
Continuous
 62
     2
100
AcDbLine
 10
-831.5923286773174
 20
1020.034847761773
 30
0.0
 11
-839.9933406600773
 21
1024.836798282175
 31
0.0
  0
LINE
  5
139
330
1F
100
AcDbEntity
  8
0
  6
Continuous
 62
     2
100
AcDbLine
 10
-822.8610278840753
 20
1024.836959496954
 30
0.0
 11
-831.2621315602006
 21
1020.034849349894
 31
0.0
  0
LINE
  5
13A
330
1F
100
AcDbEntity
  8
0
  6
Continuous
 62
     2
100
AcDbLine
 10
-823.2787813755373
 20
1024.981377444013
 30
0.0
 11
-831.4272315079512
 21
1029.639069644014
 31
0.0
  0
LINE
  5
13B
330
1F
100
AcDbEntity
  8
0
  6
Continuous
 62
     2
100
AcDbLine
 10
-831.4272315079512
 20
1020.323685244014
 30
0.0
 11
-823.2787813755373
 21
1024.981377444013
 31
0.0
  0
LINE
  5
13C
330
1F
100
AcDbEntity
  8
0
  6
Continuous
 62
     2
100
AcDbLine
 10
-827.2686700955265
 20
1023.275496935575
 30
0.0
 11
-828.5994392955414
 21
1022.514879255425
 31
0.0
  0
LINE
  5
13D
330
1F
100
AcDbEntity
  8
0
  6
Continuous
 62
     2
100
AcDbLine
 10
-828.4330008079515
 20
1023.376428801018
 30
0.0
 11
-827.6011777203613
 21
1023.851843485268
 31
0.0
  0
LINE
  5
13E
330
1F
100
AcDbEntity
  8
0
  6
Continuous
 62
     2
100
AcDbLine
 10
-828.4330008079515
 20
1024.648685144014
 30
0.0
 11
-828.4330008079515
 21
1023.376428801018
 31
0.0
  0
LINE
  5
13F
330
1F
100
AcDbEntity
  8
0
  6
Continuous
 62
     2
100
AcDbLine
 10
-828.4330008079515
 20
1024.648685144014
 30
0.0
 11
-827.4349239079526
 21
1024.648685144014
 31
0.0
  0
LINE
  5
140
330
1F
100
AcDbEntity
  8
0
  6
Continuous
 62
     2
100
AcDbLine
 10
-831.4272315079512
 20
1026.280800987953
 30
0.0
 11
-830.3845822913955
 21
1028.086722405501
 31
0.0
  0
LINE
  5
141
330
1F
100
AcDbEntity
  8
0
  6
Continuous
 62
     2
100
AcDbLine
 10
-828.4330008079515
 20
1025.314069744014
 30
0.0
 11
-827.4349239079526
 21
1025.314069744014
 31
0.0
  0
LINE
  5
142
330
1F
100
AcDbEntity
  8
0
  6
Continuous
 62
     2
100
AcDbLine
 10
-827.6011777203654
 20
1026.110855185153
 30
0.0
 11
-828.4330008079515
 21
1026.586329151843
 31
0.0
  0
LINE
  5
143
330
1F
100
AcDbEntity
  8
0
  6
Continuous
 62
     2
100
AcDbLine
 10
-828.5994392955396
 20
1027.447875632601
 30
0.0
 11
-827.2686700955616
 21
1026.687201734864
 31
0.0
  0
LINE
  5
144
330
1F
100
AcDbEntity
  8
0
  6
Continuous
 62
     2
100
AcDbLine
 10
-830.4291546079513
 20
1026.678751688613
 30
0.0
 11
-830.4291546079513
 21
1022.042378632526
 31
0.0
  0
LINE
  5
145
330
1F
100
AcDbEntity
  8
0
  6
Continuous
 62
     2
100
AcDbLine
 10
-829.0983854079524
 20
1027.159702357751
 30
0.0
 11
-829.0983854079524
 21
1022.803052530276
 31
0.0
  0
LINE
  5
146
330
1F
100
AcDbEntity
  8
0
  6
Continuous
 62
     2
100
AcDbLine
 10
-830.4291546079513
 20
1026.678751688613
 30
0.0
 11
-831.2831715162293
 21
1025.199551012953
 31
0.0
  0
LINE
  5
147
330
1F
100
AcDbEntity
  8
0
  6
Continuous
 62
     2
100
AcDbLine
 10
-828.4330008079515
 20
1026.586329151843
 30
0.0
 11
-828.4330008079515
 21
1025.314069744014
 31
0.0
  0
LINE
  5
148
330
1F
100
AcDbEntity
  8
0
  6
Continuous
 62
     2
100
AcDbLine
 10
-829.7637700079514
 20
1027.920376255501
 30
0.0
 11
-829.7637700079514
 21
1022.042378632526
 31
0.0
  0
LINE
  5
149
330
1F
100
AcDbEntity
  8
0
  6
Continuous
 62
     2
100
AcDbLine
 10
-831.4272315079512
 20
1029.639069644014
 30
0.0
 11
-839.5758635727703
 21
1024.981377444013
 31
0.0
  0
LINE
  5
14A
330
1F
100
AcDbEntity
  8
0
  6
Continuous
 62
     2
100
AcDbLine
 10
-832.4698807245073
 20
1028.086722405501
 30
0.0
 11
-831.4272315079512
 21
1026.280800987953
 31
0.0
  0
LINE
  5
14B
330
1F
100
AcDbEntity
  8
0
  6
Continuous
 62
     2
100
AcDbLine
 10
-831.5712914996744
 20
1025.199551012953
 30
0.0
 11
-832.4253084079525
 21
1026.678751688613
 31
0.0
  0
LINE
  5
14C
330
1F
100
AcDbEntity
  8
0
  6
Continuous
 62
     2
100
AcDbLine
 10
-831.9261776203654
 20
1021.183687341447
 30
0.0
 11
-834.0885852327816
 21
1022.419702047896
 31
0.0
  0
LINE
  5
14D
330
1F
100
AcDbEntity
  8
0
  6
Continuous
 62
     2
100
AcDbLine
 10
-833.7560776079514
 20
1022.996048597594
 30
0.0
 11
-831.5936699955124
 21
1021.76003389113
 31
0.0
  0
LINE
  5
14E
330
1F
100
AcDbEntity
  8
0
  6
Continuous
 62
     2
100
AcDbLine
 10
-839.5758635727703
 20
1024.981377444013
 30
0.0
 11
-831.4272315079512
 21
1020.323685244014
 31
0.0
  0
LINE
  5
14F
330
1F
100
AcDbEntity
  8
0
  6
Continuous
 62
     2
100
AcDbLine
 10
-833.0906930079524
 20
1027.920376255501
 30
0.0
 11
-833.0906930079524
 21
1023.563670210417
 31
0.0
  0
LINE
  5
150
330
1F
100
AcDbEntity
  8
0
  6
Continuous
 62
     2
100
AcDbLine
 10
-832.4253084079525
 20
1026.678751688613
 30
0.0
 11
-832.4253084079525
 21
1023.563670210417
 31
0.0
  0
LINE
  5
151
330
1F
100
AcDbEntity
  8
0
  6
Continuous
 62
     2
100
AcDbLine
 10
-835.0868468079512
 20
1026.39908467761
 30
0.0
 11
-835.0868468079512
 21
1023.563670210417
 31
0.0
  0
LINE
  5
152
330
1F
100
AcDbEntity
  8
0
  6
Continuous
 62
     2
100
AcDbLine
 10
-835.7522314079516
 20
1026.39908467761
 30
0.0
 11
-835.7522314079516
 21
1023.563670210417
 31
0.0
  0
LINE
  5
153
330
1F
100
AcDbEntity
  8
0
  6
Continuous
 62
     2
100
AcDbLine
 10
-833.7560776079514
 20
1027.166836139148
 30
0.0
 11
-833.7560776079514
 21
1022.996048597594
 31
0.0
  0
LINE
  5
154
330
1F
100
AcDbEntity
  8
0
  6
Continuous
 62
     2
100
AcDbLine
 10
-834.4214622079513
 20
1027.166836139148
 30
0.0
 11
-834.4214622079513
 21
1022.996048597594
 31
0.0
  0
LINE
  5
155
330
1F
100
AcDbEntity
  8
0
  6
Continuous
 62
     2
100
AcDbLine
 10
-839.9933406600773
 20
1025.125956605853
 30
0.0
 11
-831.5923286773174
 21
1029.927907126253
 31
0.0
  0
LWPOLYLINE
  5
156
330
1F
100
AcDbEntity
  8
Skizziergeometrie_ISO_
  6
Continuous
 62
     7
100
AcDbPolyline
 90
        2
 70
     0
 43
0.5
 10
-825.8014021055487
 20
808.6925014954597
 10
-825.8014021055487
 20
738.6925014954597
  0
LWPOLYLINE
  5
157
330
1F
100
AcDbEntity
  8
Skizziergeometrie_ISO_
  6
Continuous
 62
     7
100
AcDbPolyline
 90
        2
 70
     0
 43
0.5
 10
-486.4514129314007
 20
747.2673583273709
 10
-486.4514129314007
 20
757.1982933399529
  0
LWPOLYLINE
  5
158
330
1F
100
AcDbEntity
  8
Skizziergeometrie_ISO_
  6
Continuous
 62
     7
100
AcDbPolyline
 90
        2
 70
     0
 43
0.5
 10
-486.4514129314007
 20
757.1982933399529
 10
-488.1627269709547
 20
754.2342104757415
  0
LWPOLYLINE
  5
159
330
1F
100
AcDbEntity
  8
Skizziergeometrie_ISO_
  6
Continuous
 62
     7
100
AcDbPolyline
 90
        2
 70
     0
 43
0.5
 10
-488.7400772401425
 20
754.2342104757415
 10
-490.4513912796965
 20
757.1982933399529
  0
LWPOLYLINE
  5
15A
330
1F
100
AcDbEntity
  8
Skizziergeometrie_ISO_
  6
Continuous
 62
     7
100
AcDbPolyline
 90
        2
 70
     0
 43
0.5
 10
-490.4513912796965
 20
757.1982933399529
 10
-490.4513912796965
 20
750.3859627135865
  0
LWPOLYLINE
  5
15B
330
1F
100
AcDbEntity
  8
Skizziergeometrie_ISO_
  6
Continuous
 62
     7
100
AcDbPolyline
 90
        2
 70
     0
 43
0.5
 10
-505.2842726558306
 20
753.9812300241423
 10
-488.4514021055488
 20
763.6925014954613
  0
LWPOLYLINE
  5
15C
330
1F
100
AcDbEntity
  8
Skizziergeometrie_ISO_
  6
Continuous
 62
     7
100
AcDbPolyline
 90
        2
 70
     0
 43
0.5
 10
-488.4514021055488
 20
763.6925014954613
 10
-471.6185315552666
 20
753.9812300241423
  0
LWPOLYLINE
  5
15D
330
1F
100
AcDbEntity
  8
Skizziergeometrie_ISO_
  6
Continuous
 62
     7
100
AcDbPolyline
 90
        2
 70
     0
 43
0.5
 10
-471.6185315552666
 20
753.4037729667771
 10
-488.4514021055488
 20
743.6925014954581
  0
LWPOLYLINE
  5
15E
330
1F
100
AcDbEntity
  8
Skizziergeometrie_ISO_
  6
Continuous
 62
     7
100
AcDbPolyline
 90
        2
 70
     0
 43
0.5
 10
-488.4514021055488
 20
743.6925014954581
 10
-505.2842726558306
 20
753.4037729667771
  0
LWPOLYLINE
  5
15F
330
1F
100
AcDbEntity
  8
Skizziergeometrie_ISO_
  6
Continuous
 62
     7
100
AcDbPolyline
 90
        2
 70
     0
 43
0.5
 10
-491.7847246130286
 20
750.3859627135865
 10
-491.7847246130305
 20
760.1966174288215
  0
LWPOLYLINE
  5
160
330
1F
100
AcDbEntity
  8
Skizziergeometrie_ISO_
  6
Continuous
 62
     7
100
AcDbPolyline
 90
        2
 70
     0
 43
0.5
 10
-490.7958572457824
 20
760.4615836412967
 10
-488.4514021055488
 20
756.4008682223451
  0
LWPOLYLINE
  5
161
330
1F
100
AcDbEntity
  8
Skizziergeometrie_ISO_
  6
Continuous
 62
     7
100
AcDbPolyline
 90
        2
 70
     0
 43
0.5
 10
-485.1180795980667
 20
747.2673583273709
 10
-485.1180795980667
 20
760.1966174288214
  0
LWPOLYLINE
  5
162
330
1F
100
AcDbEntity
  8
Skizziergeometrie_ISO_
  6
Continuous
 62
     7
100
AcDbPolyline
 90
        2
 70
     0
 43
0.5
 10
-486.1069469653144
 20
760.4615836412967
 10
-488.4514021055488
 20
756.4008682223451
  0
LWPOLYLINE
  5
163
330
1F
100
AcDbEntity
  8
Skizziergeometrie_ISO_
  6
Continuous
 62
     7
100
AcDbPolyline
 90
        2
 70
     0
 43
0.5
 10
-494.4514000879426
 20
749.2325451711837
 10
-494.4514000879426
 20
758.5791780434059
  0
LWPOLYLINE
  5
164
330
1F
100
AcDbEntity
  8
Skizziergeometrie_ISO_
  6
Continuous
 62
     7
100
AcDbPolyline
 90
        2
 70
     0
 43
0.5
 10
-493.1180667546087
 20
758.5791780434059
 10
-493.1180667546087
 20
749.2325426275213
  0
LWPOLYLINE
  5
165
330
1F
100
AcDbEntity
  8
Skizziergeometrie_ISO_
  6
Continuous
 62
     7
100
AcDbPolyline
 90
        2
 70
     0
 43
0.5
 10
-493.1180667546087
 20
749.2325426275213
 10
-488.7827941419828
 20
746.7314238125435
  0
LWPOLYLINE
  5
166
330
1F
100
AcDbEntity
  8
Skizziergeometrie_ISO_
  6
Continuous
 62
     7
100
AcDbPolyline
 90
        2
 70
     0
 43
0.5
 10
-489.4490907466347
 20
745.576509697812
 10
-493.7843611559788
 20
748.0776272416643
  0
LWPOLYLINE
  5
167
330
1F
100
AcDbEntity
  8
Skizziergeometrie_ISO_
  6
Continuous
 62
     7
100
AcDbPolyline
 90
        2
 70
     0
 43
0.5
 10
-495.7847354388828
 20
756.9990402773329
 10
-495.7847354388828
 20
750.3859627135865
  0
LWPOLYLINE
  5
168
330
1F
100
AcDbEntity
  8
Skizziergeometrie_ISO_
  6
Continuous
 62
     7
100
AcDbPolyline
 90
        2
 70
     0
 43
0.5
 10
-497.1180687722144
 20
750.3859627135865
 10
-497.1180687722144
 20
756.9990402773329
  0
LWPOLYLINE
  5
169
102
{ACAD_REACTORS
330
269
102
}
330
1F
100
AcDbEntity
  8
Skizziergeometrie_ISO_
  6
Continuous
 62
     7
100
AcDbPolyline
 90
        2
 70
     0
 43
0.5
 10
-482.7849224874944
 20
759.1566351007717
 10
-480.0460170263027
 20
757.5764973346987
  0
LWPOLYLINE
  5
16A
102
{ACAD_REACTORS
330
269
102
}
330
1F
100
AcDbEntity
  8
Skizziergeometrie_ISO_
  6
Continuous
 62
     7
100
AcDbPolyline
 90
        2
 70
     0
 43
0.5
 10
-480.7123136309547
 20
756.4215832199671
 10
-482.4514041231546
 20
757.4249046577745
  0
LWPOLYLINE
  5
16B
102
{ACAD_REACTORS
330
269
102
}
330
1F
100
AcDbEntity
  8
Skizziergeometrie_ISO_
  6
Continuous
 62
     7
100
AcDbPolyline
 90
        2
 70
     0
 43
0.5
 10
-482.4514041231546
 20
757.4249046577745
 10
-482.4514041231546
 20
754.3591681621265
  0
LWPOLYLINE
  5
16C
102
{ACAD_REACTORS
330
269
102
}
330
1F
100
AcDbEntity
  8
Skizziergeometrie_ISO_
  6
Continuous
 62
     7
100
AcDbPolyline
 90
        2
 70
     0
 43
0.5
 10
-482.4514041231546
 20
754.3591681621265
 10
-480.3791653286285
 20
754.3591681621265
  0
LWPOLYLINE
  5
16D
102
{ACAD_REACTORS
330
269
102
}
330
1F
100
AcDbEntity
  8
Skizziergeometrie_ISO_
  6
Continuous
 62
     7
100
AcDbPolyline
 90
        2
 70
     0
 43
0.5
 10
-480.3791653286285
 20
753.0258348287929
 10
-482.4514041231546
 20
753.0258348287929
  0
LWPOLYLINE
  5
16E
102
{ACAD_REACTORS
330
269
102
}
330
1F
100
AcDbEntity
  8
Skizziergeometrie_ISO_
  6
Continuous
 62
     7
100
AcDbPolyline
 90
        2
 70
     0
 43
0.5
 10
-482.4514041231546
 20
753.0258348287929
 10
-482.4514041231546
 20
749.9600983331449
  0
LWPOLYLINE
  5
16F
102
{ACAD_REACTORS
330
269
102
}
330
1F
100
AcDbEntity
  8
Skizziergeometrie_ISO_
  6
Continuous
 62
     7
100
AcDbPolyline
 90
        2
 70
     0
 43
0.5
 10
-482.4514041231546
 20
749.9600983331449
 10
-480.7123136309547
 20
750.9634197709523
  0
LWPOLYLINE
  5
170
102
{ACAD_REACTORS
330
269
102
}
330
1F
100
AcDbEntity
  8
Skizziergeometrie_ISO_
  6
Continuous
 62
     7
100
AcDbPolyline
 90
        2
 70
     0
 43
0.5
 10
-480.0460170263027
 20
749.8085056562207
 10
-482.7849224874944
 20
748.2283678901478
  0
LWPOLYLINE
  5
171
102
{ACAD_REACTORS
330
269
102
}
330
1F
100
AcDbEntity
  8
Skizziergeometrie_ISO_
  6
Continuous
 62
     7
100
AcDbPolyline
 90
        2
 70
     0
 43
0.5
 10
-483.7847374564885
 20
748.8058249475135
 10
-483.7847374564885
 20
758.5791780434059
  0
LWPOLYLINE
  5
172
330
1F
100
AcDbEntity
  8
Skizziergeometrie_ISO_
  6
Continuous
 62
     7
100
AcDbPolyline
 90
        2
 70
     0
 43
0.5
 10
-511.1014021055485
 20
768.6925014954597
 10
-511.1014021055485
 20
738.6925014954597
  0
LWPOLYLINE
  5
173
330
1F
100
AcDbEntity
  8
Skizziergeometrie_ISO_
  6
Continuous
 62
     7
100
AcDbPolyline
 90
        2
 70
     0
 43
0.5
 10
-545.8014021055487
 20
768.6925014954597
 10
-545.8014021055487
 20
738.6925014954597
  0
LWPOLYLINE
  5
174
330
1F
100
AcDbEntity
  8
Skizziergeometrie_ISO_
  6
Continuous
 62
     7
100
AcDbPolyline
 90
        2
 70
     0
 43
0.5
 10
-765.8014021055487
 20
738.6925014954597
 10
-765.8014021055487
 20
768.6925014954597
  0
LWPOLYLINE
  5
175
330
1F
100
AcDbEntity
  8
Skizziergeometrie_ISO_
  6
Continuous
 62
     7
100
AcDbPolyline
 90
        2
 70
     0
 43
0.5
 10
-775.8014021055487
 20
808.6925014954597
 10
-775.8014021055487
 20
768.6925014954597
  0
LWPOLYLINE
  5
176
330
1F
100
AcDbEntity
  8
Skizziergeometrie_ISO_
  6
Continuous
 62
     7
100
AcDbPolyline
 90
        2
 70
     0
 43
0.5
 10
-811.8014021055487
 20
808.6925014954597
 10
-811.8014021055487
 20
768.6925014954597
  0
LWPOLYLINE
  5
177
330
1F
100
AcDbEntity
  8
Skizziergeometrie_ISO_
  6
Continuous
 62
     7
100
AcDbPolyline
 90
        2
 70
     0
 43
0.5
 10
-825.8014021055487
 20
753.6925014954597
 10
-765.8014021055487
 20
753.6925014954597
  0
LWPOLYLINE
  5
178
330
1F
100
AcDbEntity
  8
Skizziergeometrie_ISO_
  6
Continuous
 62
     7
100
AcDbPolyline
 90
        2
 70
     0
 43
0.5
 10
-825.8014021055487
 20
768.6925014954597
 10
-465.8014021055487
 20
768.6925014954597
  0
LWPOLYLINE
  5
179
330
1F
100
AcDbEntity
  8
Skizziergeometrie_ISO_
  6
Continuous
 62
     7
100
AcDbPolyline
 90
        2
 70
     0
 43
0.5
 10
-825.8014021055487
 20
778.6925014954597
 10
-465.8014021055487
 20
778.6925014954597
  0
LWPOLYLINE
  5
17A
330
1F
100
AcDbEntity
  8
Skizziergeometrie_ISO_
  6
Continuous
 62
     7
100
AcDbPolyline
 90
        2
 70
     0
 43
0.5
 10
-825.8014021055487
 20
788.6925014954597
 10
-465.8014021055487
 20
788.6925014954597
  0
LWPOLYLINE
  5
17B
330
1F
100
AcDbEntity
  8
Skizziergeometrie_ISO_
  6
Continuous
 62
     7
100
AcDbPolyline
 90
        2
 70
     0
 43
0.5
 10
-825.8014021055487
 20
798.6925014954597
 10
-465.8014021055487
 20
798.6925014954597
  0
LWPOLYLINE
  5
17C
330
1F
100
AcDbEntity
  8
Skizziergeometrie_ISO_
  6
Continuous
 62
     7
100
AcDbPolyline
 90
        2
 70
     0
 43
0.5
 10
-825.8014021055487
 20
808.6925014954597
 10
-465.8014021055487
 20
808.6925014954597
  0
LINE
  5
17D
330
1F
100
AcDbEntity
  8
0
  6
Continuous
 62
     7
100
AcDbLine
 10
-480.0460170263027
 20
749.8085056562207
 30
0.0
 11
-482.7849224874944
 21
748.2283678901478
 31
0.0
  0
LINE
  5
17E
330
1F
100
AcDbEntity
  8
0
  6
Continuous
 62
     7
100
AcDbLine
 10
-483.7847374564885
 20
748.8058249475135
 30
0.0
 11
-483.7847374564885
 21
758.5791780434059
 31
0.0
  0
LINE
  5
17F
330
1F
100
AcDbEntity
  8
0
  6
Continuous
 62
     7
100
AcDbLine
 10
-482.7849224874944
 20
759.1566351007717
 30
0.0
 11
-480.0460170263027
 21
757.5764973346987
 31
0.0
  0
LINE
  5
180
330
1F
100
AcDbEntity
  8
0
  6
Continuous
 62
     7
100
AcDbLine
 10
-480.7123136309547
 20
756.4215832199671
 30
0.0
 11
-482.4514041231546
 21
757.4249046577745
 31
0.0
  0
LINE
  5
181
330
1F
100
AcDbEntity
  8
0
  6
Continuous
 62
     7
100
AcDbLine
 10
-482.4514041231546
 20
757.4249046577745
 30
0.0
 11
-482.4514041231546
 21
754.3591681621265
 31
0.0
  0
LINE
  5
182
330
1F
100
AcDbEntity
  8
0
  6
Continuous
 62
     7
100
AcDbLine
 10
-482.4514041231546
 20
754.3591681621265
 30
0.0
 11
-480.3791653286285
 21
754.3591681621265
 31
0.0
  0
LINE
  5
183
330
1F
100
AcDbEntity
  8
0
  6
Continuous
 62
     7
100
AcDbLine
 10
-480.3791653286285
 20
753.0258348287929
 30
0.0
 11
-482.4514041231546
 21
753.0258348287929
 31
0.0
  0
LINE
  5
184
330
1F
100
AcDbEntity
  8
0
  6
Continuous
 62
     7
100
AcDbLine
 10
-482.4514041231546
 20
753.0258348287929
 30
0.0
 11
-482.4514041231546
 21
749.9600983331449
 31
0.0
  0
LINE
  5
185
330
1F
100
AcDbEntity
  8
0
  6
Continuous
 62
     7
100
AcDbLine
 10
-482.4514041231546
 20
749.9600983331449
 30
0.0
 11
-480.7123136309547
 21
750.9634197709523
 31
0.0
  0
LINE
  5
186
102
{ACAD_REACTORS
330
268
102
}
330
1F
100
AcDbEntity
  8
0
  6
Continuous
 62
     7
100
AcDbLine
 10
-491.7847246130305
 20
760.1966174288215
 30
0.0
 11
-491.7847246130286
 21
750.3859627135865
 31
0.0
  0
LINE
  5
187
102
{ACAD_REACTORS
330
268
102
}
330
1F
100
AcDbEntity
  8
0
  6
Continuous
 62
     7
100
AcDbLine
 10
-490.4513912796965
 20
750.3859627135865
 30
0.0
 11
-490.4513912796965
 21
757.1982933399529
 31
0.0
  0
LINE
  5
188
102
{ACAD_REACTORS
330
268
102
}
330
1F
100
AcDbEntity
  8
0
  6
Continuous
 62
     7
100
AcDbLine
 10
-490.4513912796965
 20
757.1982933399529
 30
0.0
 11
-488.7400772401425
 21
754.2342104757415
 31
0.0
  0
LINE
  5
189
102
{ACAD_REACTORS
330
268
102
}
330
1F
100
AcDbEntity
  8
0
  6
Continuous
 62
     7
100
AcDbLine
 10
-488.1627269709547
 20
754.2342104757415
 30
0.0
 11
-486.4514129314007
 21
757.1982933399529
 31
0.0
  0
LINE
  5
18A
102
{ACAD_REACTORS
330
268
102
}
330
1F
100
AcDbEntity
  8
0
  6
Continuous
 62
     7
100
AcDbLine
 10
-486.4514129314007
 20
757.1982933399529
 30
0.0
 11
-486.4514129314007
 21
747.2673583273709
 31
0.0
  0
LINE
  5
18B
102
{ACAD_REACTORS
330
268
102
}
330
1F
100
AcDbEntity
  8
0
  6
Continuous
 62
     7
100
AcDbLine
 10
-485.1180795980667
 20
747.2673583273709
 30
0.0
 11
-485.1180795980667
 21
760.1966174288214
 31
0.0
  0
LINE
  5
18C
102
{ACAD_REACTORS
330
268
102
}
330
1F
100
AcDbEntity
  8
0
  6
Continuous
 62
     7
100
AcDbLine
 10
-486.1069469653144
 20
760.4615836412967
 30
0.0
 11
-488.4514021055488
 21
756.4008682223451
 31
0.0
  0
LINE
  5
18D
102
{ACAD_REACTORS
330
268
102
}
330
1F
100
AcDbEntity
  8
0
  6
Continuous
 62
     7
100
AcDbLine
 10
-488.4514021055488
 20
756.4008682223451
 30
0.0
 11
-490.7958572457824
 21
760.4615836412967
 31
0.0
  0
LINE
  5
18E
102
{ACAD_REACTORS
330
267
102
}
330
1F
100
AcDbEntity
  8
0
  6
Continuous
 62
     7
100
AcDbLine
 10
-493.1180667546087
 20
749.2325426275213
 30
0.0
 11
-493.1180667546087
 21
758.5791780434059
 31
0.0
  0
LINE
  5
18F
102
{ACAD_REACTORS
330
267
102
}
330
1F
100
AcDbEntity
  8
0
  6
Continuous
 62
     7
100
AcDbLine
 10
-494.4514000879426
 20
758.5791780434059
 30
0.0
 11
-494.4514000879426
 21
749.2325451711837
 31
0.0
  0
LINE
  5
190
102
{ACAD_REACTORS
330
267
102
}
330
1F
100
AcDbEntity
  8
0
  6
Continuous
 62
     7
100
AcDbLine
 10
-493.7843611559788
 20
748.0776272416643
 30
0.0
 11
-489.4490907466347
 21
745.576509697812
 31
0.0
  0
LINE
  5
191
102
{ACAD_REACTORS
330
267
102
}
330
1F
100
AcDbEntity
  8
0
  6
Continuous
 62
     7
100
AcDbLine
 10
-488.7827941419828
 20
746.7314238125435
 30
0.0
 11
-493.1180667546087
 21
749.2325426275213
 31
0.0
  0
LINE
  5
192
102
{ACAD_REACTORS
330
266
102
}
330
1F
100
AcDbEntity
  8
0
  6
Continuous
 62
     7
100
AcDbLine
 10
-495.7847354388828
 20
756.9990402773329
 30
0.0
 11
-495.7847354388828
 21
750.3859627135865
 31
0.0
  0
LINE
  5
193
102
{ACAD_REACTORS
330
266
102
}
330
1F
100
AcDbEntity
  8
0
  6
Continuous
 62
     7
100
AcDbLine
 10
-497.1180687722144
 20
750.3859627135865
 30
0.0
 11
-497.1180687722144
 21
756.9990402773329
 31
0.0
  0
ARC
  5
194
330
1F
100
AcDbEntity
  8
0
  6
Continuous
 62
     7
100
AcDbCircle
 10
-663.8014021055487
 20
1017.307192485286
 30
0.0
 40
82.0000000000002
100
AcDbArc
 50
359.985184872771
 51
8.80819954011352
  0
ARC
  5
195
330
1F
100
AcDbEntity
  8
0
  6
Continuous
 62
     7
100
AcDbCircle
 10
-601.3014021055484
 20
987.3859895203717
 30
0.0
 40
1.0
100
AcDbArc
 50
270.0
 51
0.0
  0
ARC
  5
196
330
1F
100
AcDbEntity
  8
0
  6
Continuous
 62
     7
100
AcDbCircle
 10
-610.8014021055483
 20
1042.98421839391
 30
0.0
 40
1.0
100
AcDbArc
 50
0.0
 51
90.0
  0
ARC
  5
197
330
1F
100
AcDbEntity
  8
0
  6
Continuous
 62
     7
100
AcDbCircle
 10
-601.3014021055484
 20
1040.38598952014
 30
0.0
 40
1.0
100
AcDbArc
 50
0.0
 51
90.0
  0
ARC
  5
198
330
1F
100
AcDbEntity
  8
0
  6
Continuous
 62
     7
100
AcDbCircle
 10
-610.8014021055483
 20
1004.785989520138
 30
0.0
 40
1.0
100
AcDbArc
 50
0.0
 51
90.0
  0
ARC
  5
199
330
1F
100
AcDbEntity
  8
0
  6
Continuous
 62
     7
100
AcDbCircle
 10
-610.8014021055483
 20
984.7859895201378
 30
0.0
 40
1.0
100
AcDbArc
 50
270.0
 51
0.0
  0
ARC
  5
19A
330
1F
100
AcDbEntity
  8
0
  6
Continuous
 62
     7
100
AcDbCircle
 10
-663.8014021055487
 20
1010.464786554991
 30
0.0
 40
82.00000000000023
100
AcDbArc
 50
351.1918493866026
 51
0.014815127229
  0
ARC
  5
19B
330
1F
100
AcDbEntity
  8
0
  6
Continuous
 62
     2
100
AcDbCircle
 10
-663.6999146052049
 20
1017.30673000959
 30
0.0
 40
79.00320631902693
100
AcDbArc
 50
359.9851540147895
 51
8.80842533756387
  0
ARC
  5
19C
330
1F
100
AcDbEntity
  8
0
  6
Continuous
 62
     7
100
AcDbCircle
 10
-586.3603827687266
 20
1032.924408925998
 30
0.0
 40
2.999943510898812
100
AcDbArc
 50
11.40156957104541
 51
87.99989026891402
  0
ARC
  5
19D
330
1F
100
AcDbEntity
  8
0
  6
Continuous
 62
     7
100
AcDbCircle
 10
-586.3603657770911
 20
994.8476260625167
 30
0.0
 40
2.999937914755561
100
AcDbArc
 50
272.0000951749759
 51
348.5984575325407
  0
ARC
  5
19E
330
1F
100
AcDbEntity
  8
0
  6
Continuous
 62
     7
100
AcDbCircle
 10
-663.8014021055487
 20
1010.464786554991
 30
0.0
 40
82.00000000000016
100
AcDbArc
 50
348.6274855857251
 51
351.1918493866026
  0
ARC
  5
19F
330
1F
100
AcDbEntity
  8
0
  6
Continuous
 62
     7
100
AcDbCircle
 10
-663.8014021055485
 20
1017.307192485285
 30
0.0
 40
82.0000000000002
100
AcDbArc
 50
8.80819954011425
 51
11.37212603991127
  0
ARC
  5
1A0
330
1F
100
AcDbEntity
  8
0
  6
Continuous
 62
     7
100
AcDbCircle
 10
-841.9576651402688
 20
1032.984218393908
 30
0.0
 40
11.0
100
AcDbArc
 50
90.0
 51
180.0
  0
ARC
  5
1A1
330
1F
100
AcDbEntity
  8
0
  6
Continuous
 62
     7
100
AcDbCircle
 10
-769.5284540056699
 20
997.8550682122326
 30
0.0
 40
6.496040375624261
100
AcDbArc
 50
270.0
 51
0.0
  0
ARC
  5
1A2
330
1F
100
AcDbEntity
  8
0
  6
Continuous
 62
     2
100
AcDbCircle
 10
-766.1594362680038
 20
994.7859895201358
 30
0.0
 40
10.0
100
AcDbArc
 50
270.0000000000007
 51
0.0
  0
ARC
  5
1A3
330
1F
100
AcDbEntity
  8
0
  6
Continuous
 62
     7
100
AcDbCircle
 10
-766.059436268004
 20
994.9859895203698
 30
0.0
 40
8.60000000000025
100
AcDbArc
 50
269.9999999999993
 51
0.00000000000151
  0
ARC
  5
1A4
330
1F
100
AcDbEntity
  8
0
  6
Continuous
 62
     2
100
AcDbCircle
 10
-766.059436268004
 20
994.9859895203698
 30
0.0
 40
7.60000000000025
100
AcDbArc
 50
269.9999999999991
 51
0.00000000000171
  0
ARC
  5
1A5
330
1F
100
AcDbEntity
  8
0
  6
Continuous
 62
     2
100
AcDbCircle
 10
-749.1594362680038
 20
1015.984218393908
 30
0.0
 40
7.0
100
AcDbArc
 50
90.0
 51
180.0
  0
ARC
  5
1A6
330
1F
100
AcDbEntity
  8
0
  6
Continuous
 62
     7
100
AcDbCircle
 10
-749.1594362680038
 20
1015.984218393908
 30
0.0
 40
6.0
100
AcDbArc
 50
90.0
 51
180.0
  0
ARC
  5
1A7
330
1F
100
AcDbEntity
  8
0
  6
Continuous
 62
     7
100
AcDbCircle
 10
-838.590418530344
 20
1029.91697178247
 30
0.0
 40
6.496040375624034
100
AcDbArc
 50
90.0
 51
180.0
  0
ARC
  5
1A8
330
1F
100
AcDbEntity
  8
0
  6
Continuous
 62
     7
100
AcDbCircle
 10
-769.5284540056698
 20
1029.91697178247
 30
0.0
 40
6.496040375624034
100
AcDbArc
 50
0.0
 51
90.0
  0
ARC
  5
1A9
330
1F
100
AcDbEntity
  8
0
  6
Continuous
 62
     7
100
AcDbCircle
 10
-766.1594362680038
 20
994.7859895201358
 30
0.0
 40
11.0
100
AcDbArc
 50
270.0000000000006
 51
0.0
  0
ARC
  5
1AA
330
1F
100
AcDbEntity
  8
0
  6
Continuous
 62
     7
100
AcDbCircle
 10
-842.0594362680099
 20
994.9859895203698
 30
0.0
 40
8.600000000000364
100
AcDbArc
 50
180.0
 51
270.0
  0
ARC
  5
1AB
330
1F
100
AcDbEntity
  8
0
  6
Continuous
 62
     2
100
AcDbCircle
 10
-842.0594362680099
 20
994.9859895203698
 30
0.0
 40
7.600000000000364
100
AcDbArc
 50
180.0
 51
270.0
  0
ARC
  5
1AC
330
1F
100
AcDbEntity
  8
0
  6
Continuous
 62
     7
100
AcDbCircle
 10
-838.590418530344
 20
997.8550682122325
 30
0.0
 40
6.496040375624148
100
AcDbArc
 50
180.0
 51
270.0
  0
ARC
  5
1AD
330
1F
100
AcDbEntity
  8
0
  6
Continuous
 62
     2
100
AcDbCircle
 10
-863.1076651402689
 20
997.7859895201358
 30
0.0
 40
7.000000000000227
100
AcDbArc
 50
90.0
 51
180.0
  0
ARC
  5
1AE
330
1F
100
AcDbEntity
  8
0
  6
Continuous
 62
     2
100
AcDbCircle
 10
-863.1076651402689
 20
991.7859895201358
 30
0.0
 40
7.0
100
AcDbArc
 50
180.0
 51
270.0
  0
ARC
  5
1AF
330
1F
100
AcDbEntity
  8
0
  6
Continuous
 62
     7
100
AcDbCircle
 10
-863.1076651402689
 20
997.7859895201358
 30
0.0
 40
8.000000000000227
100
AcDbArc
 50
90.0
 51
180.0
  0
ARC
  5
1B0
330
1F
100
AcDbEntity
  8
0
  6
Continuous
 62
     7
100
AcDbCircle
 10
-863.1076651402689
 20
991.7859895201358
 30
0.0
 40
8.0
100
AcDbArc
 50
180.0
 51
270.0
  0
ARC
  5
1B1
330
1F
100
AcDbEntity
  8
0
  6
Continuous
 62
     2
100
AcDbCircle
 10
-858.9576651402688
 20
1011.785989520136
 30
0.0
 40
7.0
100
AcDbArc
 50
270.0
 51
0.0
  0
ARC
  5
1B2
330
1F
100
AcDbEntity
  8
0
  6
Continuous
 62
     7
100
AcDbCircle
 10
-858.9576651402688
 20
1011.785989520136
 30
0.0
 40
6.0
100
AcDbArc
 50
270.0
 51
0.0
  0
ARC
  5
1B3
330
1F
100
AcDbEntity
  8
0
  6
Continuous
 62
     7
100
AcDbCircle
 10
-745.0094362685261
 20
1035.984218393908
 30
0.0
 40
8.0
100
AcDbArc
 50
0.0
 51
90.0
  0
ARC
  5
1B4
330
1F
100
AcDbEntity
  8
0
  6
Continuous
 62
     2
100
AcDbCircle
 10
-745.0094362685259
 20
1029.984218393908
 30
0.0
 40
6.999999999999886
100
AcDbArc
 50
270.0
 51
0.0
  0
ARC
  5
1B5
330
1F
100
AcDbEntity
  8
0
  6
Continuous
 62
     2
100
AcDbCircle
 10
-745.0094362685261
 20
1035.984218393908
 30
0.0
 40
7.0
100
AcDbArc
 50
0.0
 51
90.0
  0
ARC
  5
1B6
330
1F
100
AcDbEntity
  8
0
  6
Continuous
 62
     7
100
AcDbCircle
 10
-745.0094362685259
 20
1029.984218393908
 30
0.0
 40
7.999999999999886
100
AcDbArc
 50
270.0
 51
0.0
  0
ARC
  5
1B7
330
1F
100
AcDbEntity
  8
0
  6
Continuous
 62
     7
100
AcDbCircle
 10
-766.059436268004
 20
1032.785989520138
 30
0.0
 40
8.600000000000364
100
AcDbArc
 50
0.0
 51
90.00000000000075
  0
ARC
  5
1B8
330
1F
100
AcDbEntity
  8
0
  6
Continuous
 62
     2
100
AcDbCircle
 10
-766.059436268004
 20
1032.785989520138
 30
0.0
 40
7.600000000000364
100
AcDbArc
 50
0.0
 51
90.00000000000085
  0
ARC
  5
1B9
330
1F
100
AcDbEntity
  8
0
  6
Continuous
 62
     2
100
AcDbCircle
 10
-841.9576651402688
 20
1032.984218393908
 30
0.0
 40
10.0
100
AcDbArc
 50
90.0
 51
180.0
  0
ARC
  5
1BA
330
1F
100
AcDbEntity
  8
0
  6
Continuous
 62
     7
100
AcDbCircle
 10
-842.05943626801
 20
1032.785989520138
 30
0.0
 40
8.600000000000136
100
AcDbArc
 50
90.0
 51
180.0
  0
ARC
  5
1BB
330
1F
100
AcDbEntity
  8
0
  6
Continuous
 62
     2
100
AcDbCircle
 10
-842.05943626801
 20
1032.785989520138
 30
0.0
 40
7.600000000000136
100
AcDbArc
 50
90.0
 51
180.0
  0
ARC
  5
1BC
330
1F
100
AcDbEntity
  8
0
  6
Continuous
 62
     7
100
AcDbCircle
 10
-841.5253519190776
 20
861.9450279262675
 30
0.0
 40
3.000006754348789
100
AcDbArc
 50
182.0000370175295
 51
270.0000370175732
  0
ARC
  5
1BD
330
1F
100
AcDbEntity
  8
0
  6
Continuous
 62
     7
100
AcDbCircle
 10
-851.9396651402682
 20
887.9450184306646
 30
0.0
 40
1.0
100
AcDbArc
 50
180.0
 51
270.0
  0
ARC
  5
1BE
330
1F
100
AcDbEntity
  8
0
  6
Continuous
 62
     7
100
AcDbCircle
 10
-849.6414362680097
 20
878.4450184306647
 30
0.0
 40
1.0
100
AcDbArc
 50
180.0
 51
270.0
  0
ARC
  5
1BF
330
1F
100
AcDbEntity
  8
0
  6
Continuous
 62
     7
100
AcDbCircle
 10
-766.5575171954409
 20
861.945021503641
 30
0.0
 40
3.000003110791605
100
AcDbArc
 50
270.0000089872971
 51
357.999997413882
  0
ARC
  5
1C0
330
1F
100
AcDbEntity
  8
0
  6
Continuous
 62
     7
100
AcDbCircle
 10
-737.9914362685255
 20
887.9450184306646
 30
0.0
 40
1.000000000000114
100
AcDbArc
 50
270.0
 51
0.0
  0
ARC
  5
1C1
330
1F
100
AcDbEntity
  8
0
  6
Continuous
 62
     7
100
AcDbCircle
 10
-758.4414362680031
 20
878.4450184306647
 30
0.0
 40
1.0
100
AcDbArc
 50
270.0
 51
0.0
  0
ARC
  5
1C2
330
1F
100
AcDbEntity
  8
0
  6
Continuous
 62
     7
100
AcDbCircle
 10
-810.7640486126487
 20
891.4450184306645
 30
0.0
 40
1.5000000000001
100
AcDbArc
 50
4.99999999999946
 51
90.0
  0
ARC
  5
1C3
330
1F
100
AcDbEntity
  8
0
  6
Continuous
 62
     7
100
AcDbCircle
 10
-800.4189707508773
 20
890.4450184306645
 30
0.0
 40
1.5
100
AcDbArc
 50
270.0
 51
355.0000000000045
  0
ARC
  5
1C4
330
1F
100
AcDbEntity
  8
0
  6
Continuous
 62
     7
100
AcDbCircle
 10
-797.3200225747213
 20
891.4450184306646
 30
0.0
 40
1.499999999999886
100
AcDbArc
 50
90.0
 51
175.0000000000045
  0
ARC
  5
1C5
330
1F
100
AcDbEntity
  8
0
  6
Continuous
 62
     7
100
AcDbCircle
 10
-807.6651004364927
 20
890.4450184306646
 30
0.0
 40
1.50000000000011
100
AcDbArc
 50
185.0000000000038
 51
270.0
  0
ARC
  5
1C6
330
1F
100
AcDbEntity
  8
0
  6
Continuous
 62
     7
100
AcDbCircle
 10
-870.0896651402678
 20
887.9450184306646
 30
0.0
 40
1.0
100
AcDbArc
 50
180.0
 51
270.0
  0
ARC
  5
1C7
330
1F
100
AcDbEntity
  8
0
  6
Continuous
 62
     2
100
AcDbCircle
 10
-663.6999467041687
 20
1010.465200125495
 30
0.0
 40
79.00323902979005
100
AcDbArc
 50
351.1916594277355
 51
0.01487927443767
  0
ARC
  5
1C8
330
1F
100
AcDbEntity
  8
0
  6
Continuous
 62
     2
100
AcDbCircle
 10
-822.9435778579524
 20
1024.981377444013
 30
0.0
 40
0.1663461500001529
100
AcDbArc
 50
299.7524870762325
 51
60.24751292392297
  0
ARC
  5
1C9
330
1F
100
AcDbEntity
  8
0
  6
Continuous
 62
     2
100
AcDbCircle
 10
-831.4272315079512
 20
1020.323685244014
 30
0.0
 40
0.332692300001108
100
AcDbArc
 50
240.2480640654338
 51
299.7524870755331
  0
ARC
  5
1CA
330
1F
100
AcDbEntity
  8
0
  6
Continuous
 62
     2
100
AcDbCircle
 10
-828.7656931079524
 20
1022.803052530276
 30
0.0
 40
0.3326922999999624
100
AcDbArc
 50
180.0
 51
299.9816393683953
  0
ARC
  5
1CB
330
1F
100
AcDbEntity
  8
0
  6
Continuous
 62
     2
100
AcDbCircle
 10
-827.4349239079444
 20
1023.563670210422
 30
0.0
 40
0.3326923000002781
100
AcDbArc
 50
299.9816393697652
 51
119.9816393697078
  0
ARC
  5
1CC
330
1F
100
AcDbEntity
  8
0
  6
Continuous
 62
     2
100
AcDbCircle
 10
-830.0964623079514
 20
1022.042378632526
 30
0.0
 40
0.3326922999999624
100
AcDbArc
 50
180.0
 51
0.0
  0
ARC
  5
1CD
330
1F
100
AcDbEntity
  8
0
  6
Continuous
 62
     2
100
AcDbCircle
 10
-827.4349239079526
 20
1024.981377444013
 30
0.0
 40
0.3326922999990529
100
AcDbArc
 50
270.0
 51
90.0
  0
ARC
  5
1CE
330
1F
100
AcDbEntity
  8
0
  6
Continuous
 62
     2
100
AcDbCircle
 10
-830.0964623079514
 20
1027.920376255501
 30
0.0
 40
0.3326922999999624
100
AcDbArc
 50
0.0
 51
150.0000000000633
  0
ARC
  5
1CF
330
1F
100
AcDbEntity
  8
0
  6
Continuous
 62
     2
100
AcDbCircle
 10
-831.4272315079512
 20
1025.282724087952
 30
0.0
 40
0.1663461500007724
100
AcDbArc
 50
209.9999999994357
 51
330.0000000003294
  0
ARC
  5
1D0
330
1F
100
AcDbEntity
  8
0
  6
Continuous
 62
     2
100
AcDbCircle
 10
-827.4349239079635
 20
1026.399028460009
 30
0.0
 40
0.3326923000002023
100
AcDbArc
 50
240.0183606333919
 51
60.01836063329403
  0
ARC
  5
1D1
330
1F
100
AcDbEntity
  8
0
  6
Continuous
 62
     2
100
AcDbCircle
 10
-828.7656931079524
 20
1027.159702357751
 30
0.0
 40
0.3326923000003387
100
AcDbArc
 50
60.01836063123546
 51
180.0
  0
ARC
  5
1D2
330
1F
100
AcDbEntity
  8
0
  6
Continuous
 62
     2
100
AcDbCircle
 10
-832.7580007079515
 20
1027.920376255501
 30
0.0
 40
0.3326923000005988
100
AcDbArc
 50
29.99999999993672
 51
180.0
  0
ARC
  5
1D3
330
1F
100
AcDbEntity
  8
0
  6
Continuous
 62
     2
100
AcDbCircle
 10
-835.4195391079526
 20
1026.39908467761
 30
0.0
 40
0.3326923000013267
100
AcDbArc
 50
0.0
 51
180.0
  0
ARC
  5
1D4
330
1F
100
AcDbEntity
  8
0
  6
Continuous
 62
     2
100
AcDbCircle
 10
-834.0887699079514
 20
1027.166836139148
 30
0.0
 40
0.3326922999999624
100
AcDbArc
 50
0.0
 51
180.0
  0
ARC
  5
1D5
330
1F
100
AcDbEntity
  8
0
  6
Continuous
 62
     2
100
AcDbCircle
 10
-839.9107003802084
 20
1024.981377444013
 30
0.0
 40
0.1665309277435119
100
AcDbArc
 50
119.7519359344937
 51
240.2480640651957
  0
ARC
  5
1D6
330
1F
100
AcDbEntity
  8
0
  6
Continuous
 62
     2
100
AcDbCircle
 10
-835.4195391079526
 20
1023.563670210417
 30
0.0
 40
0.3326922999990529
100
AcDbArc
 50
180.0
 51
0.0
  0
ARC
  5
1D7
330
1F
100
AcDbEntity
  8
0
  6
Continuous
 62
     2
100
AcDbCircle
 10
-833.7560776079514
 20
1022.996048597594
 30
0.0
 40
0.6653845999999248
100
AcDbArc
 50
180.0
 51
240.0183606308229
  0
ARC
  5
1D8
330
1F
100
AcDbEntity
  8
0
  6
Continuous
 62
     2
100
AcDbCircle
 10
-832.7580007079515
 20
1023.563670210417
 30
0.0
 40
0.3326923000008719
100
AcDbArc
 50
180.0
 51
0.0
  0
ARC
  5
1D9
330
1F
100
AcDbEntity
  8
0
  6
Continuous
 62
     2
100
AcDbCircle
 10
-831.7599238079375
 20
1021.471860616287
 30
0.0
 40
0.3326922999992706
100
AcDbArc
 50
240.0183606281456
 51
60.01836062880706
  0
ARC
  5
1DA
330
1F
100
AcDbEntity
  8
0
  6
Continuous
 62
     2
100
AcDbCircle
 10
-831.4272315079512
 20
1029.639069644014
 30
0.0
 40
0.3326922999985005
100
AcDbArc
 50
60.24751292431144
 51
119.7519359347216
  0
LWPOLYLINE
  5
1DB
330
1F
100
AcDbEntity
  8
Skizziergeometrie_ISO_
  6
Continuous
 62
     7
100
AcDbPolyline
 90
        2
 70
     0
 43
0.5
 10
-488.7400772401425
 20
754.2342104757415
 42
0.57735026918879
 10
-488.1627269709547
 20
754.2342104757415
 42
0.57735026918879
  0
LWPOLYLINE
  5
1DC
330
1F
100
AcDbEntity
  8
Skizziergeometrie_ISO_
  6
Continuous
 62
     7
100
AcDbPolyline
 90
        2
 70
     0
 43
0.5
 10
-494.4514000879426
 20
749.2325451711837
 42
0.26803505952201
 10
-493.7843611559788
 20
748.0776272416643
 42
0.26803505952201
  0
LWPOLYLINE
  5
1DD
330
1F
100
AcDbEntity
  8
Skizziergeometrie_ISO_
  6
Continuous
 62
     7
100
AcDbPolyline
 90
        2
 70
     0
 43
0.5
 10
-505.2842726558306
 20
753.9812300241423
 42
0.57756392459831
 10
-505.2842726558306
 20
753.4037729667771
 42
0.57756392459831
  0
LWPOLYLINE
  5
1DE
330
1F
100
AcDbEntity
  8
Skizziergeometrie_ISO_
  6
Continuous
 62
     7
100
AcDbPolyline
 90
        2
 70
     0
 43
0.5
 10
-471.6185315552666
 20
753.4037729667771
 42
0.577563924599
 10
-471.6185315552666
 20
753.9812300241423
 42
0.577563924599
  0
LWPOLYLINE
  5
1DF
102
{ACAD_REACTORS
330
269
102
}
330
1F
100
AcDbEntity
  8
Skizziergeometrie_ISO_
  6
Continuous
 62
     7
100
AcDbPolyline
 90
        2
 70
     0
 43
0.5
 10
-482.7849224874944
 20
759.1566351007717
 42
0.57724345630771
 10
-483.7847374564885
 20
758.5791780434059
 42
0.57724345630771
  0
LWPOLYLINE
  5
1E0
102
{ACAD_REACTORS
330
269
102
}
330
1F
100
AcDbEntity
  8
Skizziergeometrie_ISO_
  6
Continuous
 62
     7
100
AcDbPolyline
 90
        2
 70
     0
 43
0.5
 10
-483.7847374564885
 20
748.8058249475135
 42
0.57724345630771
 10
-482.7849224874944
 20
748.2283678901478
 42
0.57724345630771
  0
LWPOLYLINE
  5
1E1
330
1F
100
AcDbEntity
  8
Skizziergeometrie_ISO_
  6
Continuous
 62
     7
100
AcDbPolyline
 90
        2
 70
     0
 43
0.5
 10
-490.7958572457824
 20
760.4615836412967
 42
0.76732698797902
 10
-491.7847246130305
 20
760.1966174288215
 42
0.76732698797902
  0
LWPOLYLINE
  5
1E2
330
1F
100
AcDbEntity
  8
Skizziergeometrie_ISO_
  6
Continuous
 62
     7
100
AcDbPolyline
 90
        2
 70
     0
 43
0.5
 10
-491.7847246130286
 20
750.3859627135865
 42
1.0
 10
-490.4513912796965
 20
750.3859627135865
 42
1.0
  0
LWPOLYLINE
  5
1E3
330
1F
100
AcDbEntity
  8
Skizziergeometrie_ISO_
  6
Continuous
 62
     7
100
AcDbPolyline
 90
        2
 70
     0
 43
0.5
 10
-486.4514129314007
 20
747.2673583273709
 42
1.0
 10
-485.1180795980667
 20
747.2673583273709
 42
1.0
  0
LWPOLYLINE
  5
1E4
330
1F
100
AcDbEntity
  8
Skizziergeometrie_ISO_
  6
Continuous
 62
     7
100
AcDbPolyline
 90
        2
 70
     0
 43
0.5
 10
-485.1180795980667
 20
760.1966174288214
 42
0.7673269879788
 10
-486.1069469653144
 20
760.4615836412967
 42
0.7673269879788
  0
LWPOLYLINE
  5
1E5
330
1F
100
AcDbEntity
  8
Skizziergeometrie_ISO_
  6
Continuous
 62
     7
100
AcDbPolyline
 90
        2
 70
     0
 43
0.5
 10
-493.1180667546087
 20
758.5791780434059
 42
1.0
 10
-494.4514000879426
 20
758.5791780434059
 42
1.0
  0
LWPOLYLINE
  5
1E6
330
1F
100
AcDbEntity
  8
Skizziergeometrie_ISO_
  6
Continuous
 62
     7
100
AcDbPolyline
 90
        2
 70
     0
 43
0.5
 10
-489.4490907466347
 20
745.576509697812
 42
1.00000000000033
 10
-488.7827941419828
 20
746.7314238125435
 42
1.00000000000033
  0
LWPOLYLINE
  5
1E7
330
1F
100
AcDbEntity
  8
Skizziergeometrie_ISO_
  6
Continuous
 62
     7
100
AcDbPolyline
 90
        2
 70
     0
 43
0.5
 10
-495.7847354388828
 20
756.9990402773329
 42
1.0
 10
-497.1180687722144
 20
756.9990402773329
 42
1.0
  0
LWPOLYLINE
  5
1E8
330
1F
100
AcDbEntity
  8
Skizziergeometrie_ISO_
  6
Continuous
 62
     7
100
AcDbPolyline
 90
        2
 70
     0
 43
0.5
 10
-497.1180687722144
 20
750.3859627135865
 42
1.0
 10
-495.7847354388828
 20
750.3859627135865
 42
1.0
  0
LWPOLYLINE
  5
1E9
102
{ACAD_REACTORS
330
269
102
}
330
1F
100
AcDbEntity
  8
Skizziergeometrie_ISO_
  6
Continuous
 62
     7
100
AcDbPolyline
 90
        2
 70
     0
 43
0.5
 10
-480.7123136309547
 20
756.4215832199671
 42
1.00000000000026
 10
-480.0460170263027
 20
757.5764973346987
 42
1.00000000000026
  0
LWPOLYLINE
  5
1EA
102
{ACAD_REACTORS
330
269
102
}
330
1F
100
AcDbEntity
  8
Skizziergeometrie_ISO_
  6
Continuous
 62
     7
100
AcDbPolyline
 90
        2
 70
     0
 43
0.5
 10
-480.3791653286285
 20
753.0258348287929
 42
1.0
 10
-480.3791653286285
 20
754.3591681621265
 42
1.0
  0
LWPOLYLINE
  5
1EB
102
{ACAD_REACTORS
330
269
102
}
330
1F
100
AcDbEntity
  8
Skizziergeometrie_ISO_
  6
Continuous
 62
     7
100
AcDbPolyline
 90
        2
 70
     0
 43
0.5
 10
-480.0460170263027
 20
749.8085056562207
 42
1.00000000000026
 10
-480.7123136309547
 20
750.9634197709523
 42
1.00000000000026
  0
ARC
  5
1EC
330
1F
100
AcDbEntity
  8
0
  6
Continuous
 62
     7
100
AcDbCircle
 10
-483.1180707898207
 20
748.8058249475135
 30
0.0
 40
0.6666666666677656
100
AcDbArc
 50
180.0
 51
299.9816393688421
  0
ARC
  5
1ED
330
1F
100
AcDbEntity
  8
0
  6
Continuous
 62
     7
100
AcDbCircle
 10
-483.1180707898207
 20
758.5791780434059
 30
0.0
 40
0.666666666666685
100
AcDbArc
 50
60.01836063115783
 51
180.0
  0
ARC
  5
1EE
330
1F
100
AcDbEntity
  8
0
  6
Continuous
 62
     7
100
AcDbCircle
 10
-480.3791653286285
 20
756.9990402773329
 30
0.0
 40
0.6666666666666282
100
AcDbArc
 50
240.0183606311663
 51
60.01835942370929
  0
ARC
  5
1EF
330
1F
100
AcDbEntity
  8
0
  6
Continuous
 62
     7
100
AcDbCircle
 10
-480.3791653286285
 20
753.6925014954597
 30
0.0
 40
0.6666666666668561
100
AcDbArc
 50
270.0
 51
90.0
  0
ARC
  5
1F0
330
1F
100
AcDbEntity
  8
0
  6
Continuous
 62
     7
100
AcDbCircle
 10
-480.3791653286285
 20
750.3859627135865
 30
0.0
 40
0.6666666666664294
100
AcDbArc
 50
299.9816393688041
 51
119.9816393688337
  0
ARC
  5
1F1
102
{ACAD_REACTORS
330
268
102
}
330
1F
100
AcDbEntity
  8
0
  6
Continuous
 62
     7
100
AcDbCircle
 10
-491.2547921880787
 20
760.1966174288215
 30
0.0
 40
0.5299324249505502
100
AcDbArc
 50
29.99999999999078
 51
180.0
  0
ARC
  5
1F2
102
{ACAD_REACTORS
330
268
102
}
330
1F
100
AcDbEntity
  8
0
  6
Continuous
 62
     7
100
AcDbCircle
 10
-491.1180579463626
 20
750.3859627135865
 30
0.0
 40
0.6666666666659467
100
AcDbArc
 50
180.0
 51
0.0
  0
ARC
  5
1F3
102
{ACAD_REACTORS
330
268
102
}
330
1F
100
AcDbEntity
  8
0
  6
Continuous
 62
     7
100
AcDbCircle
 10
-488.4514021055488
 20
754.4008771424081
 30
0.0
 40
0.3333333333323408
100
AcDbArc
 50
210.000000000091
 51
329.9999999999481
  0
ARC
  5
1F4
102
{ACAD_REACTORS
330
268
102
}
330
1F
100
AcDbEntity
  8
0
  6
Continuous
 62
     7
100
AcDbCircle
 10
-485.7847462647346
 20
747.2673583273709
 30
0.0
 40
0.6666666666660603
100
AcDbArc
 50
180.0
 51
0.0
  0
ARC
  5
1F5
102
{ACAD_REACTORS
330
268
102
}
330
1F
100
AcDbEntity
  8
0
  6
Continuous
 62
     7
100
AcDbCircle
 10
-485.6480120230185
 20
760.1966174288214
 30
0.0
 40
0.5299324249518236
100
AcDbArc
 50
0.0
 51
149.9999999999771
  0
ARC
  5
1F6
102
{ACAD_REACTORS
330
267
102
}
330
1F
100
AcDbEntity
  8
0
  6
Continuous
 62
     7
100
AcDbCircle
 10
-493.7847334212765
 20
758.5791780434059
 30
0.0
 40
0.6666666666677656
100
AcDbArc
 50
0.0
 51
180.0
  0
ARC
  5
1F7
102
{ACAD_REACTORS
330
267
102
}
330
1F
100
AcDbEntity
  8
0
  6
Continuous
 62
     7
100
AcDbCircle
 10
-493.1180623504865
 20
749.2325451711837
 30
0.0
 40
1.333337737456077
100
AcDbArc
 50
180.0
 51
240.0183606311383
  0
ARC
  5
1F8
102
{ACAD_REACTORS
330
267
102
}
330
1F
100
AcDbEntity
  8
0
  6
Continuous
 62
     7
100
AcDbCircle
 10
-489.1159424443085
 20
746.1539667551777
 30
0.0
 40
0.6666666666666282
100
AcDbArc
 50
240.0183606311663
 51
60.01836063120438
  0
ARC
  5
1F9
102
{ACAD_REACTORS
330
266
102
}
330
1F
100
AcDbEntity
  8
0
  6
Continuous
 62
     7
100
AcDbCircle
 10
-496.4514021055488
 20
750.3859627135865
 30
0.0
 40
0.6666666666655487
100
AcDbArc
 50
180.0
 51
0.0
  0
ARC
  5
1FA
102
{ACAD_REACTORS
330
266
102
}
330
1F
100
AcDbEntity
  8
0
  6
Continuous
 62
     7
100
AcDbCircle
 10
-496.4514021055488
 20
756.9990402773329
 30
0.0
 40
0.6666666666660035
100
AcDbArc
 50
0.0
 51
180.0
  0
CIRCLE
  5
1FB
330
1F
100
AcDbEntity
  8
0
  6
Continuous
 62
     7
100
AcDbCircle
 10
-860.5594362678208
 20
994.3859895199313
 30
0.0
 40
3.257184087912947
  0
CIRCLE
  5
1FC
330
1F
100
AcDbEntity
  8
0
  6
Continuous
 62
     7
100
AcDbCircle
 10
-860.5594362678208
 20
994.3859895199313
 30
0.0
 40
3.230998166343966
  0
CIRCLE
  5
1FD
330
1F
100
AcDbEntity
  8
0
  6
Continuous
 62
     7
100
AcDbCircle
 10
-747.5594362678206
 20
1033.385989520228
 30
0.0
 40
3.257184087913288
  0
CIRCLE
  5
1FE
330
1F
100
AcDbEntity
  8
0
  6
Continuous
 62
     7
100
AcDbCircle
 10
-747.5594362678206
 20
1033.385989520228
 30
0.0
 40
3.230998166344079
  0
SPLINE
  5
1FF
330
1F
100
AcDbEntity
  8
0
  6
Continuous
 62
     2
100
AcDbSpline
210
0.0
220
0.0
230
1.0
 70
     8
 71
     3
 72
    11
 73
     7
 74
     5
 42
0.0000000001
 43
0.0000000001
 44
0.00000001
 40
0.0
 40
0.0
 40
0.0
 40
0.0
 40
1.700136055933077
 40
3.400272111866153
 40
5.100407417991351
 40
6.800542724116891
 40
6.800542724116891
 40
6.800542724116891
 40
6.800542724116891
 10
-584.6967103383721
 20
1010.485716660426
 30
0.0
 10
-584.696709807717
 20
1011.05242867907
 30
0.0
 10
-584.6967087464066
 20
1012.185852716358
 30
0.0
 10
-584.6967054125028
 20
1013.885988522354
 30
0.0
 10
-584.6967090463518
 20
1015.586124078414
 30
0.0
 10
-584.6967103076261
 20
1016.71954761583
 30
0.0
 10
-584.6967109382633
 20
1017.286259384538
 30
0.0
 11
-584.6967103383721
 21
1010.485716660426
 31
0.0
 11
-584.6967084560835
 21
1012.185852716358
 31
0.0
 11
-584.6967065737948
 21
1013.88598877229
 31
0.0
 11
-584.6967087560289
 21
1015.586124078414
 31
0.0
 11
-584.6967109382633
 21
1017.286259384538
 31
0.0
  0
SPLINE
  5
200
330
1F
100
AcDbEntity
  8
0
  6
Continuous
 62
     2
100
AcDbSpline
210
0.0
220
0.0
230
1.0
 70
     8
 71
     3
 72
    18
 73
    14
 74
    12
 42
0.0000000001
 43
0.0000000001
 44
0.00000001
 40
0.0
 40
0.0
 40
0.0
 40
0.0
 40
0.0787002557096779
 40
0.2493051756962766
 40
0.5207496138420533
 40
1.147536407727316
 40
1.917287163138772
 40
2.245982143109707
 40
2.708715728888197
 40
3.302890315056909
 40
4.025985653474828
 40
5.260269298217363
 40
6.542148889254237
 40
6.542148889254237
 40
6.542148889254237
 40
6.542148889254237
 10
-844.5560692465556
 20
862.772098364194
 30
0.0
 10
-844.5398819351312
 20
862.7933811443372
 30
0.0
 10
-844.4886040773622
 20
862.8608003311632
 30
0.0
 10
-844.3082107857958
 20
862.9004761474084
 30
0.0
 10
-843.9707925739084
 20
862.9911726272629
 30
0.0
 10
-843.414538643538
 20
863.0696766563174
 30
0.0
 10
-842.8455091169265
 20
863.1385117299922
 30
0.0
 10
-842.3272894347103
 20
863.1888061190475
 30
0.0
 10
-841.8672006146992
 20
863.2286013485951
 30
0.0
 10
-841.2754318813152
 20
863.2723115403458
 30
0.0
 10
-840.426466803654
 20
863.3237617314044
 30
0.0
 10
-839.3476858599597
 20
863.3721404069538
 30
0.0
 10
-838.5091367237026
 20
863.3901312524101
 30
0.0
 10
-838.081931124096
 20
863.3992968332789
 30
0.0
 11
-844.5560692465556
 21
862.772098364194
 31
0.0
 11
-844.5040110771391
 21
862.8311210483567
 31
0.0
 11
-844.3451656113504
 21
862.8933637726061
 31
0.0
 11
-844.0815094389392
 21
862.9579199942254
 31
0.0
 11
-843.4632455813929
 21
863.060932068474
 31
0.0
 11
-842.6988966768067
 21
863.1519649060349
 31
0.0
 11
-842.3717675778115
 21
863.1840108488151
 31
0.0
 11
-841.9107636439152
 21
863.2239826431146
 31
0.0
 11
-841.318219407826
 21
863.2679686309539
 31
0.0
 11
-840.5964694022518
 21
863.3120571543528
 31
0.0
 11
-839.3633966033794
 21
863.3667159904171
 31
0.0
 11
-838.081931124096
 21
863.3992968332789
 31
0.0
  0
SPLINE
  5
201
330
1F
100
AcDbEntity
  8
0
  6
Continuous
 62
     2
100
AcDbSpline
210
0.0
220
0.0
230
1.0
 70
     8
 71
     3
 72
    15
 73
    11
 74
     9
 42
0.0000000001
 43
0.0000000001
 44
0.00000001
 40
0.0
 40
0.0
 40
0.0
 40
0.0
 40
0.1309114526656994
 40
0.3427455577912079
 40
0.635225894187295
 40
1.000439587532927
 40
1.423758988087449
 40
1.885253687917398
 40
2.362969279027615
 40
2.836040030364737
 40
2.836040030364737
 40
2.836040030364737
 40
2.836040030364737
 10
-838.0827063513891
 20
860.5632571893966
 30
0.0
 10
-838.0826173918294
 20
860.6068942577169
 30
0.0
 10
-838.0823844825363
 20
860.7211425608049
 30
0.0
 10
-838.0823773509843
 20
860.9328846270946
 30
0.0
 10
-838.0823812655007
 20
861.2227272958471
 30
0.0
 10
-838.0824528028859
 20
861.5830651160542
 30
0.0
 10
-838.0824932005164
 20
861.9997410413805
 30
0.0
 10
-838.0824572393866
 20
862.4539176068835
 30
0.0
 10
-838.0823042884838
 20
862.924677943066
 30
0.0
 10
-838.0820551064521
 20
863.241606629696
 30
0.0
 10
-838.081931124096
 20
863.3992968332789
 30
0.0
 11
-838.0827063513891
 21
860.5632571893966
 31
0.0
 11
-838.0824728894015
 21
860.694168433889
 31
0.0
 11
-838.0823796559145
 21
860.9060025184973
 31
0.0
 11
-838.0823889599022
 21
861.1984828547454
 31
0.0
 11
-838.0824432304188
 21
861.5636965440588
 31
0.0
 11
-838.0824800763316
 21
861.9870159430097
 31
0.0
 11
-838.0824390939363
 21
862.44851064102
 31
0.0
 11
-838.0822668746102
 21
862.9262262010872
 31
0.0
 11
-838.081931124096
 21
863.3992968332789
 31
0.0
  0
SPLINE
  5
202
330
1F
100
AcDbEntity
  8
0
  6
Continuous
 62
     2
100
AcDbSpline
210
0.0
220
0.0
230
1.0
 70
     8
 71
     3
 72
    11
 73
     7
 74
     5
 42
0.0000000001
 43
0.0000000001
 44
0.00000001
 40
0.0
 40
0.0
 40
0.0
 40
0.0
 40
0.4230257383516754
 40
0.7255727094816615
 40
0.8465936492291823
 40
0.9676125019973959
 40
0.9676125019973959
 40
0.9676125019973959
 40
0.9676125019973959
 10
-841.5578635727697
 20
859.9120872607982
 30
0.0
 10
-841.553123840919
 20
859.7711583623346
 30
0.0
 10
-841.5449942644668
 20
859.529437461141
 30
0.0
 10
-841.535514464768
 20
859.247398849224
 30
0.0
 10
-841.5294123852498
 20
859.0659725174114
 30
0.0
 10
-841.5267041078578
 20
858.9853380553275
 30
0.0
 10
-841.5253499808376
 20
858.9450211719193
 30
0.0
 11
-841.5578635727697
 21
859.9120872607982
 31
0.0
 11
-841.5436460490431
 21
859.4893005091999
 31
0.0
 11
-841.533480215021
 21
859.1869243766124
 31
0.0
 11
-841.5294133048169
 21
859.0659717904525
 31
0.0
 11
-841.5253499808376
 21
858.9450211719193
 31
0.0
  0
SPLINE
  5
203
330
1F
100
AcDbEntity
  8
0
  6
Continuous
 62
     2
100
AcDbSpline
210
0.0
220
0.0
230
1.0
 70
     8
 71
     3
 72
    11
 73
     7
 74
     5
 42
0.0000000001
 43
0.0000000001
 44
0.00000001
 40
0.0
 40
0.0
 40
0.0
 40
0.0
 40
17.02063512226244
 40
34.04127024452465
 40
51.06190542506764
 40
68.08254060561005
 40
68.08254060561005
 40
68.08254060561005
 40
68.08254060561005
 10
-838.0827063513891
 20
860.5632571893966
 30
0.0
 10
-832.409161310635
 20
860.5632570005137
 30
0.0
 10
-821.0620712291269
 20
860.5632566227475
 30
0.0
 10
-804.0414360874373
 20
860.5632561093371
 30
0.0
 10
-787.0208009263218
 20
860.563255382973
 30
0.0
 10
-775.6737108059599
 20
860.5632549342226
 30
0.0
 10
-770.0001657457791
 20
860.5632547098476
 30
0.0
 11
-838.0827063513891
 21
860.5632571893966
 31
0.0
 11
-821.0620712291267
 21
860.5632566316208
 31
0.0
 11
-804.0414361068645
 21
860.5632560738449
 31
0.0
 11
-787.0208009263215
 21
860.563255391846
 31
0.0
 11
-770.0001657457791
 21
860.5632547098476
 31
0.0
  0
SPLINE
  5
204
330
1F
100
AcDbEntity
  8
0
  6
Continuous
 62
     2
100
AcDbSpline
210
0.0
220
0.0
230
1.0
 70
     8
 71
     3
 72
    15
 73
    11
 74
     9
 42
0.0000000001
 43
0.0000000001
 44
0.00000001
 40
0.0
 40
0.0
 40
0.0
 40
0.0
 40
0.4730725014880066
 40
0.9507896894526602
 40
1.412285789199423
 40
1.835606361825037
 40
2.200820986885804
 40
2.493302025297227
 40
2.705136633080573
 40
2.836048434384661
 40
2.836048434384661
 40
2.836048434384661
 40
2.836048434384661
 10
-770.0009412050324
 20
863.3993027576745
 30
0.0
 10
-770.0008172125094
 20
863.2416119707159
 30
0.0
 10
-770.0005680100888
 20
862.924682168433
 30
0.0
 10
-770.0004150274602
 20
862.4539202499533
 30
0.0
 10
-770.0003790342646
 20
861.9997422948393
 30
0.0
 10
-770.0004194003673
 20
861.5830652016091
 30
0.0
 10
-770.0004909081772
 20
861.2227264461281
 30
0.0
 10
-770.0004947949477
 20
860.9328830652478
 30
0.0
 10
-770.0004876412194
 20
860.7211404811826
 30
0.0
 10
-770.0002547126987
 20
860.6068918943665
 30
0.0
 10
-770.0001657457791
 20
860.5632547098476
 30
0.0
 11
-770.0009412050324
 21
863.3993027576745
 31
0.0
 11
-770.0006054237863
 21
862.9262303753533
 31
0.0
 11
-770.0004331722716
 21
862.4485132184432
 31
0.0
 11
-770.0003921571451
 21
861.987017120519
 31
0.0
 11
-770.0004289708894
 21
861.5636965494941
 31
0.0
 11
-770.0004832108655
 21
861.1984819284611
 31
0.0
 11
-770.000492486935
 21
860.9060008901968
 31
0.0
 11
-770.0003992287753
 21
860.6941663029414
 31
0.0
 11
-770.0001657457791
 21
860.5632547098476
 31
0.0
  0
SPLINE
  5
205
330
1F
100
AcDbEntity
  8
0
  6
Continuous
 62
     2
100
AcDbSpline
210
0.0
220
0.0
230
1.0
 70
     8
 71
     3
 72
    11
 73
     7
 74
     5
 42
0.0000000001
 43
0.0000000001
 44
0.00000001
 40
0.0
 40
0.0
 40
0.0
 40
0.0
 40
17.02024750861796
 40
34.04049501723568
 40
51.0607424681526
 40
68.08098991906952
 40
68.08098991906952
 40
68.08098991906952
 40
68.08098991906952
 10
-838.081931124096
 20
863.3992968332789
 30
0.0
 10
-832.4085152878904
 20
863.3992993205359
 30
0.0
 10
-821.06168361548
 20
863.3993042950499
 30
0.0
 10
-804.0414361260985
 20
863.3993177374936
 30
0.0
 10
-787.0211886559482
 20
863.3993072572478
 30
0.0
 10
-775.6743570220043
 20
863.3993042575323
 30
0.0
 10
-770.0009412050324
 20
863.3993027576745
 30
0.0
 11
-838.081931124096
 21
863.3992968332789
 31
0.0
 11
-821.0616836154801
 21
863.3993052918288
 31
0.0
 11
-804.0414361068645
 21
863.3993137503787
 31
0.0
 11
-787.0211886559484
 21
863.3993082540266
 31
0.0
 11
-770.0009412050324
 21
863.3993027576745
 31
0.0
  0
SPLINE
  5
206
330
1F
100
AcDbEntity
  8
0
  6
Continuous
 62
     2
100
AcDbSpline
210
0.0
220
0.0
230
1.0
 70
     8
 71
     3
 72
    15
 73
    11
 74
     9
 42
0.0000000001
 43
0.0000000001
 44
0.00000001
 40
0.0
 40
0.0
 40
0.0
 40
0.0
 40
0.5317343440408617
 40
1.094198408998542
 40
1.679891500321539
 40
2.278624456591304
 40
2.878758754213652
 40
3.46832034453106
 40
4.036282736347852
 40
4.574100100269632
 40
4.574100100269632
 40
4.574100100269632
 40
4.574100100269632
 10
-844.5560692465556
 20
862.772098364194
 30
0.0
 10
-844.5404051791631
 20
862.5950727141436
 30
0.0
 10
-844.5081717945577
 20
862.2307908376615
 30
0.0
 10
-844.3295263228094
 20
861.694681077001
 30
0.0
 10
-844.0454471868256
 20
861.1828461933094
 30
0.0
 10
-843.6559922357733
 20
860.727570616899
 30
0.0
 10
-843.1817794126936
 20
860.359378180457
 30
0.0
 10
-842.6543935139073
 20
860.0972826772759
 30
0.0
 10
-842.1064060199528
 20
859.9401415650343
 30
0.0
 10
-841.7373574702792
 20
859.9212671819421
 30
0.0
 10
-841.5578635727697
 20
859.9120872607982
 30
0.0
 11
-844.5560692465556
 21
862.772098364194
 31
0.0
 11
-844.4892099189544
 21
862.2445841530629
 31
0.0
 11
-844.3164900331543
 21
861.70929575844
 31
0.0
 11
-844.0314601216426
 21
861.1976373306123
 31
0.0
 11
-843.6422681107507
 21
860.7426530104633
 31
0.0
 11
-843.1684123406786
 21
860.3743842440005
 31
0.0
 11
-842.6409518276813
 21
860.1110056647534
 31
0.0
 11
-842.0935951103481
 21
859.9594078332765
 31
0.0
 11
-841.5578635727697
 21
859.9120872607982
 31
0.0
  0
SPLINE
  5
207
330
1F
100
AcDbEntity
  8
0
  6
Continuous
 62
     2
100
AcDbSpline
210
0.0
220
0.0
230
1.0
 70
     8
 71
     3
 72
    16
 73
    12
 74
    10
 42
0.0000000001
 43
0.0000000001
 44
0.00000001
 40
0.0
 40
0.0
 40
0.0
 40
0.0
 40
0.1559355507712642
 40
0.3478783257928806
 40
0.6832968515992186
 40
1.119512506069331
 40
1.650840745720996
 40
2.260870092293745
 40
2.547816921092336
 40
3.010525662789336
 40
3.615400625820519
 40
3.615400625820519
 40
3.615400625820519
 40
3.615400625820519
 10
-841.5578635727697
 20
859.9120872607982
 30
0.0
 10
-841.5335982132112
 20
859.9597211864419
 30
0.0
 10
-841.4794643571649
 20
860.0659882321663
 30
0.0
 10
-841.2593533801222
 20
860.1593216743206
 30
0.0
 10
-840.9619466958518
 20
860.2665435747732
 30
0.0
 10
-840.5350357164007
 20
860.362043961148
 30
0.0
 10
-840.0169266706959
 20
860.4473802177043
 30
0.0
 10
-839.5430950454706
 20
860.4989415779748
 30
0.0
 10
-839.0912306331293
 20
860.5335749898526
 30
0.0
 10
-838.6402183948246
 20
860.5574105773094
 30
0.0
 10
-838.2843406776437
 20
860.5611426562615
 30
0.0
 10
-838.0827063513891
 20
860.5632571893966
 30
0.0
 11
-841.5578635727697
 21
859.9120872607982
 31
0.0
 11
-841.4734281734559
 21
860.0431847792227
 31
0.0
 11
-841.3065132239603
 21
860.1379551781766
 31
0.0
 11
-840.9902876744854
 21
860.2497898298433
 31
0.0
 11
-840.566046573836
 21
860.351296409554
 31
0.0
 11
-840.0419519808235
 21
860.4386723549069
 31
0.0
 11
-839.4356711544889
 21
860.5061954124432
 31
0.0
 11
-839.149571832987
 21
860.5282331254311
 31
0.0
 11
-838.6874780545791
 21
860.5520809680899
 31
0.0
 11
-838.0827063513891
 21
860.5632571893966
 31
0.0
  0
SPLINE
  5
208
330
1F
100
AcDbEntity
  8
0
  6
Continuous
 62
     2
100
AcDbSpline
210
0.0
220
0.0
230
1.0
 70
     8
 71
     3
 72
    20
 73
    16
 74
    14
 42
0.0000000001
 43
0.0000000001
 44
0.00000001
 40
0.0
 40
0.0
 40
0.0
 40
0.0
 40
0.8149449503283938
 40
1.516268498462689
 40
2.088521924259089
 40
2.516195513980566
 40
3.644200699380813
 40
4.624855666355224
 40
5.192482020143701
 40
5.602614201836233
 40
5.87309339343564
 40
6.021506401576548
 40
6.292950397997256
 40
6.463557184380123
 40
6.542260264974367
 40
6.542260264974367
 40
6.542260264974367
 40
6.542260264974367
 10
-770.0009412050324
 20
863.3993027576745
 30
0.0
 10
-769.7293416069531
 20
863.3939955860665
 30
0.0
 10
-769.2240094190588
 20
863.3841211802899
 30
0.0
 10
-768.5282079882234
 20
863.3607625416354
 30
0.0
 10
-767.9616274890934
 20
863.3367464690182
 30
0.0
 10
-767.2532247569925
 20
863.3007461816326
 30
0.0
 10
-766.4094726104611
 20
863.2465283032711
 30
0.0
 10
-765.5205750809625
 20
863.1691800575679
 30
0.0
 10
-764.8719377782395
 20
863.0959807004806
 30
0.0
 10
-764.4594307879661
 20
863.039594326601
 30
0.0
 10
-764.187239396867
 20
862.9942132546577
 30
0.0
 10
-763.9600636449127
 20
862.9516957028671
 30
0.0
 10
-763.7748632692519
 20
862.9002634510563
 30
0.0
 10
-763.594250150424
 20
862.8608211222133
 30
0.0
 10
-763.5429864688549
 20
862.7933849563667
 30
0.0
 10
-763.5268033562049
 20
862.772096452787
 30
0.0
 11
-770.0009412050324
 21
863.3993027576745
 31
0.0
 11
-769.1861943562695
 21
863.3813348836565
 31
0.0
 11
-768.4852529388141
 21
863.3581864827765
 31
0.0
 11
-767.9135198709166
 21
863.3337880728243
 31
0.0
 11
-767.4863980708277
 21
863.3120701715891
 31
0.0
 11
-766.3607725877463
 21
863.238837869102
 31
0.0
 11
-765.3839718779234
 21
863.1519785717236
 31
0.0
 11
-764.820016715607
 21
863.0875250814229
 31
0.0
 11
-764.4138093625778
 21
863.0309212581875
 31
0.0
 11
-764.1470303028912
 21
862.9863350899178
 31
0.0
 11
-764.0013600206021
 21
862.9579345645133
 31
0.0
 11
-763.7377053133933
 21
862.8933742163147
 31
0.0
 11
-763.5788610411812
 21
862.8311233308167
 31
0.0
 11
-763.5268033562049
 21
862.772096452787
 31
0.0
  0
SPLINE
  5
209
330
1F
100
AcDbEntity
  8
0
  6
Continuous
 62
     2
100
AcDbSpline
210
0.0
220
0.0
230
1.0
 70
     8
 71
     3
 72
    15
 73
    11
 74
     9
 42
0.0000000001
 43
0.0000000001
 44
0.00000001
 40
0.0
 40
0.0
 40
0.0
 40
0.0
 40
0.537817553923313
 40
1.105780237986739
 40
1.695342123224641
 40
2.295476630378767
 40
2.89420966581336
 40
3.479902731254005
 40
4.042366738244124
 40
4.574101089819631
 40
4.574101089819631
 40
4.574101089819631
 40
4.574101089819631
 10
-766.5250120680182
 20
859.9120872658629
 30
0.0
 10
-766.3455181070915
 20
859.9212671548062
 30
0.0
 10
-765.9764693964592
 20
859.9401414732554
 30
0.0
 10
-765.4284815701562
 20
860.0972823092496
 30
0.0
 10
-764.901095196184
 20
860.359377438844
 30
0.0
 10
-764.4268818105992
 20
860.7275694617394
 30
0.0
 10
-764.0374262852874
 20
861.1828446694803
 30
0.0
 10
-763.7533466687339
 20
861.694679293396
 30
0.0
 10
-763.5747008677281
 20
862.2307889392401
 30
0.0
 10
-763.5424674436996
 20
862.5950707998043
 30
0.0
 10
-763.5268033562049
 20
862.772096452787
 30
0.0
 11
-766.5250120680182
 21
859.9120872658629
 31
0.0
 11
-765.9892803284145
 21
859.9594077105901
 31
0.0
 11
-765.4419232375499
 21
860.1110052883042
 31
0.0
 11
-764.9144622225144
 21
860.3743835223006
 31
0.0
 11
-764.4406058886602
 21
860.7426519047928
 31
0.0
 11
-764.0514133317351
 21
861.1976358620427
 31
0.0
 11
-763.7663829688329
 21
861.7092940087863
 31
0.0
 11
-763.5936627878248
 21
862.2445822472447
 31
0.0
 11
-763.5268033562049
 21
862.772096452787
 31
0.0
  0
SPLINE
  5
20A
330
1F
100
AcDbEntity
  8
0
  6
Continuous
 62
     2
100
AcDbSpline
210
0.0
220
0.0
230
1.0
 70
     8
 71
     3
 72
    11
 73
     7
 74
     5
 42
0.0000000001
 43
0.0000000001
 44
0.00000001
 40
0.0
 40
0.0
 40
0.0
 40
0.0
 40
0.1210164252440964
 40
0.2420328504882427
 40
0.5445721658571065
 40
0.9676149843935117
 40
0.9676149843935117
 40
0.9676149843935117
 40
0.9676149843935117
 10
-766.5575167248667
 20
858.9450183928494
 30
0.0
 10
-766.5561613073653
 20
858.9853344232564
 30
0.0
 10
-766.5534504723624
 20
859.0659664840703
 30
0.0
 10
-766.5473458305739
 20
859.2473878610185
 30
0.0
 10
-766.5378770336224
 20
859.5294284803166
 30
0.0
 10
-766.5297502824352
 20
859.7711526197617
 30
0.0
 10
-766.5250120680182
 20
859.9120872658629
 30
0.0
 11
-766.5575167248667
 21
858.9450183928494
 31
0.0
 11
-766.5534498854041
 21
859.0659664643332
 31
0.0
 11
-766.5493815784017
 21
859.1869144864626
 31
0.0
 11
-766.5392228140407
 21
859.4892831965675
 31
0.0
 11
-766.5250120680182
 21
859.9120872658629
 31
0.0
  0
SPLINE
  5
20B
330
1F
100
AcDbEntity
  8
0
  6
Continuous
 62
     2
100
AcDbSpline
210
0.0
220
0.0
230
1.0
 70
     8
 71
     3
 72
    16
 73
    12
 74
    10
 42
0.0000000001
 43
0.0000000001
 44
0.00000001
 40
0.0
 40
0.0
 40
0.0
 40
0.0
 40
0.6050158270455077
 40
1.06774576757901
 40
1.354528033516712
 40
2.063736221265388
 40
2.495870636045079
 40
2.932083466826014
 40
3.267501476550703
 40
3.459010687737526
 40
3.615363058426937
 40
3.615363058426937
 40
3.615363058426937
 40
3.615363058426937
 10
-770.0001657457791
 20
860.5632547098476
 30
0.0
 10
-769.7984848136259
 20
860.5611384108649
 30
0.0
 10
-769.4425536923533
 20
860.5574035180233
 30
0.0
 10
-768.9915390783992
 20
860.5335705009531
 30
0.0
 10
-768.5067733987594
 20
860.496389765414
 30
0.0
 10
-768.033012033455
 20
860.4433143697466
 30
0.0
 10
-767.5154122404263
 20
860.3547505116284
 30
0.0
 10
-767.1209336022766
 20
860.2665448605985
 30
0.0
 10
-766.8236461508523
 20
860.1593722473142
 30
0.0
 10
-766.6036088950759
 20
860.0660441067521
 30
0.0
 10
-766.549384261958
 20
859.9598279460532
 30
0.0
 10
-766.5250120680182
 20
859.9120872658629
 30
0.0
 11
-770.0001657457791
 21
860.5632547098476
 31
0.0
 11
-769.3952532553178
 21
860.5520730346832
 31
0.0
 11
-768.9331385341347
 21
860.5282196841422
 31
0.0
 11
-768.6472034382182
 21
860.5061926784548
 31
0.0
 11
-767.9426980607241
 21
860.4246547936917
 31
0.0
 11
-767.5168360741168
 21
860.3512945810429
 31
0.0
 11
-767.0925977291889
 21
860.2497886185048
 31
0.0
 11
-766.7763727145352
 21
860.1379540024195
 31
0.0
 11
-766.6098049657066
 21
860.0434502299045
 31
0.0
 11
-766.5250120680182
 21
859.9120872658629
 31
0.0
  0
SPLINE
  5
20C
330
1F
100
AcDbEntity
  8
0
  6
Continuous
 62
     2
100
AcDbSpline
210
0.0
220
0.0
230
1.0
 70
     8
 71
     3
 72
    34
 73
    30
 74
    28
 42
0.0000000001
 43
0.0000000001
 44
0.00000001
 40
0.0
 40
0.0
 40
0.0
 40
0.0
 40
0.4701034028669031
 40
0.9057005976582444
 40
1.303986990813493
 40
1.662156600360873
 40
1.977402206967736
 40
2.246915488564192
 40
2.46788714559787
 40
2.881899746866683
 40
3.261225606458903
 40
3.604537404580932
 40
3.910506652885398
 40
4.177803768211292
 40
4.405098142885354
 40
4.591058214842278
 40
4.677535590615822
 40
4.808012090138061
 40
4.973873098423716
 40
5.166504741204371
 40
5.377294232009082
 40
5.597630433622395
 40
5.818904831048751
 40
6.03251334391669
 40
6.220452207883854
 40
6.365143687433797
 40
6.467664653091108
 40
6.529169084438964
 40
6.55143749757765
 40
6.55143749757765
 40
6.55143749757765
 40
6.55143749757765
 10
-585.6284820390778
 20
1029.40458212306
 30
0.0
 10
-585.6391967185459
 20
1029.560916622778
 30
0.0
 10
-585.6598396059169
 20
1029.862110464317
 30
0.0
 10
-585.6911091675378
 20
1030.295647399803
 30
0.0
 10
-585.7206463190025
 20
1030.691899427787
 30
0.0
 10
-585.7480782359644
 20
1031.048078849832
 30
0.0
 10
-585.7729022123857
 20
1031.361406746343
 30
0.0
 10
-585.7946475028868
 20
1031.629102009895
 30
0.0
 10
-585.8195674010636
 20
1031.929569657565
 30
0.0
 10
-585.8482350344157
 20
1032.266455994236
 30
0.0
 10
-585.8814373995115
 20
1032.643882296367
 30
0.0
 10
-585.9124110656446
 20
1032.985349774489
 30
0.0
 10
-585.9407987456125
 20
1033.289554490588
 30
0.0
 10
-585.9662443780035
 20
1033.555192369595
 30
0.0
 10
-585.9883840729037
 20
1033.780960122544
 30
0.0
 10
-586.0049917119019
 20
1033.946707540034
 30
0.0
 10
-586.0185428862845
 20
1034.080326802335
 30
0.0
 10
-586.0315823972173
 20
1034.207263848584
 30
0.0
 10
-586.048529005514
 20
1034.369370239199
 30
0.0
 10
-586.0686854729656
 20
1034.558057813184
 30
0.0
 10
-586.0913602665852
 20
1034.764736297763
 30
0.0
 10
-586.1158374766965
 20
1034.980825083812
 30
0.0
 10
-586.1414812116044
 20
1035.197709265497
 30
0.0
 10
-586.1669536986178
 20
1035.403792360398
 30
0.0
 10
-586.1913961024563
 20
1035.584102051531
 30
0.0
 10
-586.2112023815054
 20
1035.728114073454
 30
0.0
 10
-586.2307544199346
 20
1035.828553013604
 30
0.0
 10
-586.2388731041274
 20
1035.891262197273
 30
0.0
 10
-586.2521509930923
 20
1035.915959689375
 30
0.0
 10
-586.2556805081624
 20
1035.922524751848
 30
0.0
 11
-585.6284820390778
 21
1029.40458212306
 31
0.0
 11
-585.6609159060815
 21
1029.873565335615
 31
0.0
 11
-585.6921855544646
 21
1030.308038723983
 31
0.0
 11
-585.7218119314277
 21
1030.705221715513
 31
0.0
 11
-585.7493159841725
 21
1031.062333737553
 31
0.0
 11
-585.7742186599
 21
1031.376594217453
 31
0.0
 11
-585.7960409058119
 21
1031.64522258256
 31
0.0
 11
-585.8143036691091
 21
1031.865438260224
 31
0.0
 11
-585.8494201127176
 21
1032.277958889281
 31
0.0
 11
-585.8826689050962
 21
1032.655824772315
 31
0.0
 11
-585.9136914885985
 21
1032.997732055131
 31
0.0
 11
-585.9421293055782
 21
1033.302376883535
 31
0.0
 11
-585.9676237983891
 21
1033.568455403333
 31
0.0
 11
-585.9898164093847
 21
1033.794663760331
 31
0.0
 11
-586.0083485809187
 21
1033.979698100334
 31
0.0
 11
-586.0170778635176
 21
1034.065733768205
 31
0.0
 11
-586.0304113423337
 21
1034.195527201283
 31
0.0
 11
-586.0476586690361
 21
1034.360489026537
 31
0.0
 11
-586.0681294952929
 21
1034.552029870935
 31
0.0
 11
-586.0911334727731
 21
1034.761560361446
 31
0.0
 11
-586.1159802531444
 21
1034.980491125037
 31
0.0
 11
-586.141979488076
 21
1035.200232788678
 31
0.0
 11
-586.1684408292365
 21
1035.412195979335
 31
0.0
 11
-586.1934129512407
 21
1035.59846838661
 31
0.0
 11
-586.2146307053744
 21
1035.741595711617
 31
0.0
 11
-586.2320863663984
 21
1035.842619710239
 31
0.0
 11
-586.2457722090742
 21
1035.902582138356
 31
0.0
 11
-586.2556805081624
 21
1035.922524751848
 31
0.0
  0
SPLINE
  5
20D
330
1F
100
AcDbEntity
  8
0
  6
Continuous
 62
     7
100
AcDbSpline
210
0.0
220
0.0
230
1.0
 70
     8
 71
     3
 72
    11
 73
     7
 74
     5
 42
0.0000000001
 43
0.0000000001
 44
0.00000001
 40
0.0
 40
0.0
 40
0.0
 40
0.0
 40
0.0102137168045059
 40
0.0143335232852041
 40
0.0312848852889295
 40
0.0422961334970361
 40
0.0422961334970361
 40
0.0422961334970361
 40
0.0422961334970361
 10
-583.4196408642804
 20
1033.517450341093
 30
0.0
 10
-583.4189437537797
 20
1033.514117887219
 30
0.0
 10
-583.4179654566734
 20
1033.509441254206
 30
0.0
 10
-583.4158931137155
 20
1033.499220937102
 30
0.0
 10
-583.4137636957826
 20
1033.488740838621
 30
0.0
 10
-583.4119890906869
 20
1033.479590426762
 30
0.0
 10
-583.4112902783429
 20
1033.475987134529
 30
0.0
 11
-583.4196408642804
 21
1033.517450341093
 31
0.0
 11
-583.4175641715017
 21
1033.507449973197
 31
0.0
 11
-583.4167429825454
 21
1033.5034128388
 31
0.0
 11
-583.4133993327268
 21
1033.486794515188
 31
0.0
 11
-583.4112902783429
 21
1033.475987134529
 31
0.0
  0
SPLINE
  5
20E
330
1F
100
AcDbEntity
  8
0
  6
Continuous
 62
     7
100
AcDbSpline
210
0.0
220
0.0
230
1.0
 70
     8
 71
     3
 72
    11
 73
     7
 74
     5
 42
0.0000000001
 43
0.0000000001
 44
0.00000001
 40
0.0
 40
0.0
 40
0.0
 40
0.0
 40
0.0112384298994701
 40
0.0253398878487544
 40
0.0306968255004955
 40
0.0416806665959716
 40
0.0416806665959716
 40
0.0416806665959716
 40
0.0416806665959716
 10
-583.4113998789317
 20
994.2954469888699
 30
0.0
 10
-583.4121132538073
 20
994.2917693816507
 30
0.0
 10
-583.4137217382224
 20
994.2834772843273
 30
0.0
 10
-583.415754609221
 20
994.273448899347
 30
0.0
 10
-583.4177694197493
 20
994.2635035163147
 30
0.0
 10
-583.4188815399253
 20
994.2581713120592
 30
0.0
 10
-583.419629077817
 20
994.2545871447968
 30
0.0
 11
-583.4113998789317
 21
994.2954469888699
 31
0.0
 11
-583.4135536993034
 21
994.2844168771564
 31
0.0
 11
-583.4163333045778
 21
994.2705920838193
 31
0.0
 11
-583.4174002945069
 21
994.2653424825492
 31
0.0
 11
-583.419629077817
 21
994.2545871447968
 31
0.0
  0
SPLINE
  5
20F
330
1F
100
AcDbEntity
  8
0
  6
Continuous
 62
     2
100
AcDbSpline
210
0.0
220
0.0
230
1.0
 70
     8
 71
     3
 72
    29
 73
    25
 74
    23
 42
0.0000000001
 43
0.0000000001
 44
0.00000001
 40
0.0
 40
0.0
 40
0.0
 40
0.0
 40
0.2641048122912548
 40
0.5337857255995707
 40
0.8054456113708984
 40
1.075487365651733
 40
1.287503112169968
 40
1.493494270625295
 40
1.691344595500582
 40
1.878937858843034
 40
2.054157862827215
 40
2.189615672103282
 40
2.314202002512347
 40
2.427438431071622
 40
2.528846570401873
 40
2.617948094761993
 40
2.694264790121479
 40
2.75806381907462
 40
2.809362011721536
 40
2.848425604960333
 40
2.869929763559245
 40
2.884988274852614
 40
2.889442497453319
 40
2.896818137380057
 40
2.896818137380057
 40
2.896818137380057
 40
2.896818137380057
 10
-585.6284820390778
 20
1029.40458212306
 30
0.0
 10
-585.5414700467657
 20
1029.417963599855
 30
0.0
 10
-585.36560895946
 20
1029.445009079408
 30
0.0
 10
-585.1002800882242
 20
1029.486034929018
 30
0.0
 10
-584.8330211813127
 20
1029.527528995679
 30
0.0
 10
-584.5847846242077
 20
1029.566255281963
 30
0.0
 10
-584.3582017579172
 20
1029.601771892483
 30
0.0
 10
-584.1554142616823
 20
1029.63370110845
 30
0.0
 10
-583.960691083646
 20
1029.664507105081
 30
0.0
 10
-583.7761229241839
 20
1029.693861437221
 30
0.0
 10
-583.6121187683166
 20
1029.720103666762
 30
0.0
 10
-583.4688773553542
 20
1029.743178466046
 30
0.0
 10
-583.3460554948766
 20
1029.7630993057
 30
0.0
 10
-583.2344595107509
 20
1029.781340582509
 30
0.0
 10
-583.1345608998406
 20
1029.797820116366
 30
0.0
 10
-583.0468308613229
 20
1029.812454037753
 30
0.0
 10
-582.9714961211938
 20
1029.825202766056
 30
0.0
 10
-582.9086194062817
 20
1029.836045588198
 30
0.0
 10
-582.8580197089702
 20
1029.845007657719
 30
0.0
 10
-582.8213412926309
 20
1029.851726688271
 30
0.0
 10
-582.7965993887103
 20
1029.85656396258
 30
0.0
 10
-582.7832091848009
 20
1029.859318059912
 30
0.0
 10
-582.7744918676653
 20
1029.861432019802
 30
0.0
 10
-582.7707832014735
 20
1029.862784493311
 30
0.0
 10
-582.7684709356819
 20
1029.863627728605
 30
0.0
 11
-585.6284820390778
 21
1029.40458212306
 31
0.0
 11
-585.3674514651937
 21
1029.444761612518
 31
0.0
 11
-585.1009362548887
 21
1029.48596158435
 31
0.0
 11
-584.8324932852398
 21
1029.527644501515
 31
0.0
 11
-584.5656794333238
 21
1029.569272826977
 31
0.0
 11
-584.3562216017948
 21
1029.602107162403
 31
0.0
 11
-584.1527376821941
 21
1029.634148570389
 31
0.0
 11
-583.9573184035605
 21
1029.665068735194
 31
0.0
 11
-583.772054494932
 21
1029.694539341078
 31
0.0
 11
-583.599036685347
 21
1029.722232072301
 31
0.0
 11
-583.4653036839105
 21
1029.74377975015
 31
0.0
 11
-583.3423253031432
 21
1029.76373148162
 31
0.0
 11
-583.2305731106886
 21
1029.782005403871
 31
0.0
 11
-583.1305186741904
 21
1029.798519654064
 31
0.0
 11
-583.042633561292
 21
1029.813192369359
 31
0.0
 11
-582.9673893396372
 21
1029.825941686916
 31
0.0
 11
-582.9045222168835
 21
1029.836806353134
 31
0.0
 11
-582.8540141328725
 21
1029.845775077591
 31
0.0
 11
-582.8156020269654
 21
1029.852879613924
 31
0.0
 11
-582.794499537991
 21
1029.857016496341
 31
0.0
 11
-582.7797735221275
 21
1029.860163434402
 31
0.0
 11
-582.7754569539253
 21
1029.861262223705
 31
0.0
 11
-582.7684709356819
 21
1029.863627728605
 31
0.0
  0
SPLINE
  5
210
330
1F
100
AcDbEntity
  8
0
  6
Continuous
 62
     2
100
AcDbSpline
210
0.0
220
0.0
230
1.0
 70
     8
 71
     3
 72
    34
 73
    30
 74
    28
 42
0.0000000001
 43
0.0000000001
 44
0.00000001
 40
0.0
 40
0.0
 40
0.0
 40
0.0
 40
0.0224153007405926
 40
0.0842044037683525
 40
0.1869385984071956
 40
0.3315608622297136
 40
0.5189369164611292
 40
0.732540834539018
 40
0.953812054989791
 40
1.174146531976861
 40
1.384935784869437
 40
1.577568710754492
 40
1.743432557440401
 40
1.873913484932075
 40
1.96039691252
 40
2.146208000114661
 40
2.373413950310149
 40
2.640677163210465
 40
2.946660994544628
 40
3.290029826092169
 40
3.669449136304808
 40
4.083585574405102
 40
4.300416215905874
 40
4.567501600030415
 40
4.881831691236998
 40
5.240397454952006
 40
5.640190990841008
 40
6.078205676690506
 40
6.551436330828738
 40
6.551436330828738
 40
6.551436330828738
 40
6.551436330828738
 10
-586.2556644735163
 20
991.8495158028002
 30
0.0
 10
-586.2521189313495
 20
991.8561279282267
 30
0.0
 10
-586.238799892375
 20
991.8809667686966
 30
0.0
 10
-586.2306610045235
 20
991.9438874032032
 30
0.0
 10
-586.2111050292518
 20
992.0444743847968
 30
0.0
 10
-586.1913217021936
 20
992.1883457799282
 30
0.0
 10
-586.1669122046255
 20
992.3684471265746
 30
0.0
 10
-586.1414625831643
 20
992.5743410319412
 30
0.0
 10
-586.115819441399
 20
992.7912221936367
 30
0.0
 10
-586.0913424804927
 20
993.0073092575699
 30
0.0
 10
-586.0686678228342
 20
993.2139875358764
 30
0.0
 10
-586.0485113123414
 20
993.4026764055945
 30
0.0
 10
-586.0315644931516
 20
993.5647856398571
 30
0.0
 10
-586.0185245932903
 20
993.6917271088486
 30
0.0
 10
-586.0049781496896
 20
993.8253004459283
 30
0.0
 10
-585.9883781413296
 20
993.9909711226024
 30
0.0
 10
-585.9662469708214
 20
994.2166488404304
 30
0.0
 10
-585.9408043034414
 20
994.4822509243382
 30
0.0
 10
-585.9124149063165
 20
994.7864681062753
 30
0.0
 10
-585.88143579117
 20
995.1279903383662
 30
0.0
 10
-585.8482248994825
 20
995.5055076846908
 30
0.0
 10
-585.8196686982553
 20
995.8410908657681
 30
0.0
 10
-585.7949211140569
 20
996.1394170646026
 30
0.0
 10
-585.7733681114578
 20
996.4046249175047
 30
0.0
 10
-585.7486080792162
 20
996.7169723802343
 30
0.0
 10
-585.7211348405598
 20
997.0734788562202
 30
0.0
 10
-585.6914746833334
 20
997.4711659755757
 30
0.0
 10
-585.6600224460378
 20
997.9070464841146
 30
0.0
 10
-585.6392510030511
 20
998.2100841025879
 30
0.0
 10
-585.6284639151828
 20
998.367458504547
 30
0.0
 11
-586.2556644735163
 21
991.8495158028002
 31
0.0
 11
-586.2457118852694
 21
991.8696004161766
 31
0.0
 11
-586.2319860349312
 21
991.9298457005187
 31
0.0
 11
-586.2145122091072
 21
992.0310829474151
 31
0.0
 11
-586.1933156944028
 21
992.1741434484542
 31
0.0
 11
-586.1684217774234
 21
992.3598584952241
 31
0.0
 11
-586.1419610335496
 21
992.5718171299901
 31
0.0
 11
-586.1159622439474
 21
992.791555647185
 31
0.0
 11
-586.0911157521815
 21
993.0104847078327
 31
0.0
 11
-586.0681119018172
 21
993.2200149729579
 31
0.0
 11
-586.0476410364197
 21
993.4115571035843
 31
0.0
 11
-586.0303934995541
 21
993.576521760737
 31
0.0
 11
-586.0170596347849
 21
993.7063196054395
 31
0.0
 11
-586.0083297856776
 21
993.7923612987162
 31
0.0
 11
-585.989812407537
 21
993.9772473906212
 31
0.0
 11
-585.9676281276595
 21
994.2033677159583
 31
0.0
 11
-585.9421364013401
 21
994.469412443136
 31
0.0
 11
-585.9136966838732
 21
994.7740717405624
 31
0.0
 11
-585.8826684305538
 21
995.1160357766455
 31
0.0
 11
-585.8494110966767
 21
995.4939947197936
 31
0.0
 11
-585.8142841375366
 21
995.9066387384149
 31
0.0
 11
-585.7963600487909
 21
996.1227272715125
 31
0.0
 11
-585.7747246499625
 21
996.3889349196568
 31
0.0
 11
-585.7498803956404
 21
996.7022816433753
 31
0.0
 11
-585.7223297404128
 21
997.0597874031961
 31
0.0
 11
-585.692575138868
 21
997.458472159646
 31
0.0
 11
-585.6611190455953
 21
997.895355873254
 31
0.0
 11
-585.6284639151828
 21
998.367458504547
 31
0.0
  0
SPLINE
  5
211
330
1F
100
AcDbEntity
  8
0
  6
Continuous
 62
     2
100
AcDbSpline
210
0.0
220
0.0
230
1.0
 70
     8
 71
     3
 72
    27
 73
    23
 74
    21
 42
0.0000000001
 43
0.0000000001
 44
0.00000001
 40
0.0
 40
0.0
 40
0.0
 40
0.0
 40
0.0051800384659505
 40
0.0118388707618752
 40
0.0268973166502625
 40
0.0484013885659482
 40
0.087464830820263
 40
0.1387628310685827
 40
0.2025616261982059
 40
0.2956907945551556
 40
0.4070923490697316
 40
0.5359398753121113
 40
0.6814067734207714
 40
0.8426663503133159
 40
1.017885800347586
 40
1.205478487236313
 40
1.403328221760411
 40
1.609318784584569
 40
1.821333938822193
 40
2.181925864862999
 40
2.543262918742457
 40
2.896818626925291
 40
2.896818626925291
 40
2.896818626925291
 40
2.896818626925291
 10
-582.768460213366
 20
997.9084205083128
 30
0.0
 10
-582.7700644983568
 20
997.9090658755026
 30
0.0
 10
-582.7737310585177
 20
997.910540848865
 30
0.0
 10
-582.7825033664802
 20
997.9125038969958
 30
0.0
 10
-582.796576152593
 20
997.9155232718347
 30
0.0
 10
-582.8213377763533
 20
997.9202977724063
 30
0.0
 10
-582.8580055313508
 20
997.9270500014311
 30
0.0
 10
-582.9086094995465
 20
997.935997883527
 30
0.0
 10
-582.9770070401232
 20
997.9477982358754
 30
0.0
 10
-583.0652026600401
 20
997.962687933716
 30
0.0
 10
-583.1748256876306
 20
997.9809030068267
 30
0.0
 10
-583.3017000532226
 20
998.0017280092613
 30
0.0
 10
-583.4450109197644
 20
998.0250202601353
 30
0.0
 10
-583.603612717313
 20
998.0505833250597
 30
0.0
 10
-583.7761090852329
 20
998.0781842168539
 30
0.0
 10
-583.9606767249899
 20
998.1075381705941
 30
0.0
 10
-584.1553993644087
 20
998.1383438114161
 30
0.0
 10
-584.358186354044
 20
998.1702724313866
 30
0.0
 10
-584.6145880807471
 20
998.2104633290512
 30
0.0
 10
-584.9221896247439
 20
998.2584025505682
 30
0.0
 10
-585.2764559953525
 20
998.3133022574095
 30
0.0
 10
-585.511982481733
 20
998.3495378927045
 30
0.0
 10
-585.6284639151828
 20
998.367458504547
 30
0.0
 11
-582.768460213366
 21
997.9084205083128
 31
0.0
 11
-582.7733103191895
 21
997.9102396487718
 31
0.0
 11
-582.7797628033081
 21
997.9118844880478
 31
0.0
 11
-582.794488783314
 21
997.9150312809294
 31
0.0
 11
-582.8155912111308
 21
997.9191680247203
 31
0.0
 11
-582.8540031961496
 21
997.9262723844854
 31
0.0
 11
-582.9045111150157
 21
997.9352409385102
 31
0.0
 11
-582.9673780294715
 21
997.9461054369704
 31
0.0
 11
-583.0592027884132
 21
997.9616378432281
 31
0.0
 11
-583.1690945637374
 21
997.9799163569633
 31
0.0
 11
-583.2962384933628
 21
998.000799512333
 31
0.0
 11
-583.4398197152082
 21
998.0241458434955
 31
0.0
 11
-583.599023367192
 21
998.0498138846084
 31
0.0
 11
-583.7720406660064
 21
998.077506302005
 31
0.0
 11
-583.9573040474259
 21
998.1069765527534
 31
0.0
 11
-584.1527227916739
 21
998.1378963174318
 31
0.0
 11
-584.3562061789738
 21
998.1699372766179
 31
0.0
 11
-584.565663489549
 21
998.20277111089
 31
0.0
 11
-584.9219521455512
 21
998.2583132636206
 31
0.0
 11
-585.2790293178562
 21
998.3136337799325
 31
0.0
 11
-585.6284639151828
 21
998.367458504547
 31
0.0
  0
SPLINE
  5
212
330
1F
100
AcDbEntity
  8
0
  6
Continuous
 62
     2
100
AcDbSpline
210
0.0
220
0.0
230
1.0
 70
     8
 71
     3
 72
    11
 73
     7
 74
     5
 42
0.0000000001
 43
0.0000000001
 44
0.00000001
 40
0.0
 40
0.0
 40
0.0
 40
0.0
 40
17.02063512226255
 40
34.04127024452509
 40
50.96142021777818
 40
67.88157024813114
 40
67.88157024813114
 40
67.88157024813114
 40
67.88157024813114
 10
-838.1007063513896
 20
1033.517450341091
 30
0.0
 10
-832.4271613103203
 20
1033.517446990214
 30
0.0
 10
-821.0800712281819
 20
1033.517440288461
 30
0.0
 10
-804.0929311603069
 20
1033.5174738903
 30
0.0
 10
-787.1392861005265
 20
1033.517333745488
 30
0.0
 10
-775.8591861482935
 20
1033.518475555042
 30
0.0
 10
-770.2191361626603
 20
1033.519046459819
 30
0.0
 11
-838.1007063513896
 21
1033.517450341091
 31
0.0
 11
-821.0800712291273
 21
1033.517447575249
 31
0.0
 11
-804.059436106865
 21
1033.517444809406
 31
0.0
 11
-787.1392861347668
 21
1033.517642509197
 31
0.0
 11
-770.2191361626603
 21
1033.519046459819
 31
0.0
  0
SPLINE
  5
213
330
1F
100
AcDbEntity
  8
0
  6
Continuous
 62
     2
100
AcDbSpline
210
0.0
220
0.0
230
1.0
 70
     8
 71
     3
 72
    18
 73
    14
 74
    12
 42
0.0000000001
 43
0.0000000001
 44
0.00000001
 40
0.0
 40
0.0
 40
0.0
 40
0.0
 40
0.4578360739002718
 40
0.9069817650340163
 40
1.191202982590129
 40
1.455825196835774
 40
1.694946013868335
 40
1.903504936796028
 40
2.077683594725321
 40
2.21509144839406
 40
2.314843444618939
 40
2.377550336644911
 40
2.405075816321468
 40
2.405075816321468
 40
2.405075816321468
 40
2.405075816321468
 10
-838.1007063513896
 20
1033.517450341091
 30
0.0
 10
-838.1006180534723
 20
1033.670062341534
 30
0.0
 10
-838.1004431336585
 20
1033.972389548623
 30
0.0
 10
-838.1003736165164
 20
1034.369457212886
 30
0.0
 10
-838.1003722054735
 20
1034.702120252854
 30
0.0
 10
-838.1004016205154
 20
1034.964775003979
 30
0.0
 10
-838.1004409093623
 20
1035.202208977039
 30
0.0
 10
-838.1004783029074
 20
1035.409495131765
 30
0.0
 10
-838.100478529307
 20
1035.582876872984
 30
0.0
 10
-838.100475658925
 20
1035.71998989428
 30
0.0
 10
-838.1003368314582
 20
1035.819945023522
 30
0.0
 10
-838.1003107531658
 20
1035.883273849116
 30
0.0
 10
-838.1000198610435
 20
1035.913349992689
 30
0.0
 10
-838.0999311240964
 20
1035.922524751847
 30
0.0
 11
-838.1007063513896
 21
1033.517450341091
 31
0.0
 11
-838.1004725422363
 21
1033.97528635529
 31
0.0
 11
-838.1003796559149
 21
1034.424432036819
 31
0.0
 11
-838.1003778803571
 21
1034.70865325437
 31
0.0
 11
-838.1004050506308
 21
1034.97327546722
 31
0.0
 11
-838.1004432304193
 21
1035.212396281205
 31
0.0
 11
-838.1004735859358
 21
1035.420955201924
 31
0.0
 11
-838.1004778234912
 21
1035.595133859801
 31
0.0
 11
-838.1004390939368
 21
1035.732541708012
 31
0.0
 11
-838.1003396296478
 21
1035.832293654648
 31
0.0
 11
-838.1001714182127
 21
1035.89500032106
 31
0.0
 11
-838.0999311240964
 21
1035.922524751847
 31
0.0
  0
SPLINE
  5
214
330
1F
100
AcDbEntity
  8
0
  6
Continuous
 62
     2
100
AcDbSpline
210
0.0
220
0.0
230
1.0
 70
     8
 71
     3
 72
    11
 73
     7
 74
     5
 42
0.0000000001
 43
0.0000000001
 44
0.00000001
 40
0.0
 40
0.0
 40
0.0
 40
0.0
 40
17.02024750861574
 40
34.04049501723149
 40
51.06074246814752
 40
68.08098991906355
 40
68.08098991906355
 40
68.08098991906355
 40
68.08098991906355
 10
-838.0999311240964
 20
1035.922524751847
 30
0.0
 10
-832.4265152878911
 20
1035.922524838704
 30
0.0
 10
-821.0796836154805
 20
1035.922525012418
 30
0.0
 10
-804.0594361260985
 20
1035.922525481838
 30
0.0
 10
-787.0391886559487
 20
1035.922525115859
 30
0.0
 10
-775.692357022005
 20
1035.922525011107
 30
0.0
 10
-770.0189412050329
 20
1035.922524958731
 30
0.0
 11
-838.0999311240964
 21
1035.922524751847
 31
0.0
 11
-821.0796836154807
 21
1035.922525047226
 31
0.0
 11
-804.059436106865
 21
1035.922525342605
 31
0.0
 11
-787.0391886559489
 21
1035.922525150668
 31
0.0
 11
-770.0189412050329
 21
1035.922524958731
 31
0.0
  0
SPLINE
  5
215
330
1F
100
AcDbEntity
  8
0
  6
Continuous
 62
     2
100
AcDbSpline
210
0.0
220
0.0
230
1.0
 70
     8
 71
     3
 72
    15
 73
    11
 74
     9
 42
0.0000000001
 43
0.0000000001
 44
0.00000001
 40
0.0
 40
0.0
 40
0.0
 40
0.0
 40
0.8113307097809838
 40
1.390082030091189
 40
2.204918975440442
 40
2.783718986285465
 40
3.496538995381767
 40
4.18763454485648
 40
5.008017298321759
 40
5.596004399953387
 40
5.596004399953387
 40
5.596004399953387
 40
5.596004399953387
 10
-838.1007058971525
 20
994.2545871447946
 30
0.0
 10
-838.3719249631032
 20
994.2733791116832
 30
0.0
 10
-838.8366143249764
 20
994.3055760631447
 30
0.0
 10
-839.5349485885189
 20
994.5525364658706
 30
0.0
 10
-840.106518616105
 20
994.8889557508018
 30
0.0
 10
-840.6286364913502
 20
995.3629505858225
 30
0.0
 10
-841.0332240487148
 20
995.8916059824231
 30
0.0
 10
-841.3622774792962
 20
996.5596652301484
 30
0.0
 10
-841.5491191661937
 20
997.2423223134017
 30
0.0
 10
-841.5679891917732
 20
997.7122345778805
 30
0.0
 10
-841.5758673294714
 20
997.9084205083109
 30
0.0
 11
-838.1007058971525
 21
994.2545871447946
 31
0.0
 11
-838.9060417684893
 21
994.3530333482349
 31
0.0
 11
-839.453703481826
 21
994.5401689635142
 31
0.0
 11
-840.1549469969623
 21
994.955159059764
 31
0.0
 11
-840.5840549791426
 21
995.3435863916851
 31
0.0
 11
-841.0173453182812
 21
995.9096003909618
 31
0.0
 11
-841.3245264780804
 21
996.528674533184
 31
0.0
 11
-841.5336753940489
 21
997.3219491345249
 31
0.0
 11
-841.5758673294714
 21
997.9084205083109
 31
0.0
  0
SPLINE
  5
216
330
1F
100
AcDbEntity
  8
0
  6
Continuous
 62
     2
100
AcDbSpline
210
0.0
220
0.0
230
1.0
 70
     8
 71
     3
 72
    15
 73
    11
 74
     9
 42
0.0000000001
 43
0.0000000001
 44
0.00000001
 40
0.0
 40
0.0
 40
0.0
 40
0.0
 40
1.169533161076098
 40
2.578455460224674
 40
4.083954147470293
 40
5.134604423788565
 40
6.355057951218551
 40
7.672950053904446
 40
9.208861155047579
 40
10.19031769318372
 40
10.19031769318372
 40
10.19031769318372
 40
10.19031769318372
 10
-838.0999305641543
 20
991.849515802798
 30
0.0
 10
-838.4902145311507
 20
991.8707418295937
 30
0.0
 10
-839.3506688211464
 20
991.9175385913375
 30
0.0
 10
-840.6656470798457
 20
992.3247497364065
 30
0.0
 10
-841.8256314545301
 20
992.9805481964595
 30
0.0
 10
-842.7799149110053
 20
993.8097135223268
 30
0.0
 10
-843.5384213408579
 20
994.7448428689707
 30
0.0
 10
-844.1719959134399
 20
995.9543105974582
 30
0.0
 10
-844.525343705998
 20
997.2002648534573
 30
0.0
 10
-844.5604007707561
 20
998.040048557076
 30
0.0
 10
-844.5740686136558
 20
998.3674585045449
 30
0.0
 11
-838.0999305641543
 21
991.849515802798
 31
0.0
 11
-839.2645638825617
 21
991.9564599401413
 31
0.0
 11
-840.614501529565
 21
992.3598584952219
 31
0.0
 11
-841.9233472063329
 21
993.1038002212357
 31
0.0
 11
-842.7169148756021
 21
993.7923612987141
 31
0.0
 11
-843.4850640878396
 21
994.7407565751444
 31
0.0
 11
-844.0995218778419
 21
995.9066387384128
 31
0.0
 11
-844.5031402536088
 21
997.388568263511
 31
0.0
 11
-844.5740686136558
 21
998.3674585045449
 31
0.0
  0
SPLINE
  5
217
330
1F
100
AcDbEntity
  8
0
  6
Continuous
 62
     2
100
AcDbSpline
210
0.0
220
0.0
230
1.0
 70
     8
 71
     3
 72
    11
 73
     7
 74
     5
 42
0.0000000001
 43
0.0000000001
 44
0.00000001
 40
0.0
 40
0.0
 40
0.0
 40
0.0
 40
17.02063481693341
 40
34.0412696338666
 40
51.06190443064269
 40
68.08253922741855
 40
68.08253922741855
 40
68.08253922741855
 40
68.08253922741855
 10
-838.1007058971525
 20
994.2545871447946
 30
0.0
 10
-832.4271609581749
 20
994.2545887031677
 30
0.0
 10
-821.0800710802201
 20
994.2545918199139
 30
0.0
 10
-804.0594362700065
 20
994.254600856134
 30
0.0
 10
-787.0388014665123
 20
994.2545924479496
 30
0.0
 10
-775.6917116019956
 20
994.2545897498944
 30
0.0
 10
-770.018166669737
 20
994.2545884008665
 30
0.0
 11
-838.1007058971525
 21
994.2545871447946
 31
0.0
 11
-821.0800710802199
 21
994.2545925467639
 31
0.0
 11
-804.0594362632876
 21
994.2545979487332
 31
0.0
 11
-787.0388014665122
 21
994.2545931747999
 31
0.0
 11
-770.018166669737
 21
994.2545884008665
 31
0.0
  0
SPLINE
  5
218
330
1F
100
AcDbEntity
  8
0
  6
Continuous
 62
     2
100
AcDbSpline
210
0.0
220
0.0
230
1.0
 70
     8
 71
     3
 72
    11
 73
     7
 74
     5
 42
0.0000000001
 43
0.0000000001
 44
0.00000001
 40
0.0
 40
0.0
 40
0.0
 40
0.0
 40
17.02024715043342
 40
34.04049430086673
 40
51.0607414713452
 40
68.08098864182388
 40
68.08098864182388
 40
68.08098864182388
 40
68.08098864182388
 10
-838.0999305641543
 20
991.849515802798
 30
0.0
 10
-832.426514847343
 20
991.8495156995803
 30
0.0
 10
-821.0796834137207
 20
991.8495154931445
 30
0.0
 10
-804.0594362566061
 20
991.8495148862208
 30
0.0
 10
-787.039189092809
 20
991.8495154683803
 30
0.0
 10
-775.6923576458233
 20
991.8495156583062
 30
0.0
 10
-770.0189419223304
 20
991.8495157532691
 30
0.0
 11
-838.0999305641543
 21
991.849515802798
 31
0.0
 11
-821.0796834137209
 21
991.8495154435996
 31
0.0
 11
-804.0594362632876
 21
991.8495150844013
 31
0.0
 11
-787.0391890928091
 21
991.8495154188352
 31
0.0
 11
-770.0189419223304
 21
991.8495157532691
 31
0.0
  0
SPLINE
  5
219
330
1F
100
AcDbEntity
  8
0
  6
Continuous
 62
     2
100
AcDbSpline
210
0.0
220
0.0
230
1.0
 70
     8
 71
     3
 72
    18
 73
    14
 74
    12
 42
0.0000000001
 43
0.0000000001
 44
0.00000001
 40
0.0
 40
0.0
 40
0.0
 40
0.0
 40
0.0275254380859487
 40
0.090232233219969
 40
0.1899840830696284
 40
0.3273917445534155
 40
0.5015701696406166
 40
0.7101288241203539
 40
0.9492493420199881
 40
1.213871231175104
 40
1.498092102325195
 40
1.94723724426359
 40
2.40507274878341
 40
2.40507274878341
 40
2.40507274878341
 40
2.40507274878341
 10
-838.0999305641543
 20
991.849515802798
 30
0.0
 10
-838.100019341186
 20
991.8586905477307
 30
0.0
 10
-838.1003103647039
 20
991.8887666439551
 30
0.0
 10
-838.1003364485568
 20
991.9520953752503
 30
0.0
 10
-838.1004753299143
 20
992.0520503589383
 30
0.0
 10
-838.1004781874638
 20
992.1891631899382
 30
0.0
 10
-838.1004779429843
 20
992.3625446999347
 30
0.0
 10
-838.1004405105763
 20
992.5698305878686
 30
0.0
 10
-838.1004011787504
 20
992.807264263357
 30
0.0
 10
-838.1003717225477
 20
993.0699186909367
 30
0.0
 10
-838.1003730991844
 20
993.4025813240075
 30
0.0
 10
-838.1004426064019
 20
993.7996484999535
 30
0.0
 10
-838.1006175747409
 20
994.1019753341582
 30
0.0
 10
-838.1007058971525
 20
994.2545871447946
 30
0.0
 11
-838.0999305641543
 21
991.849515802798
 31
0.0
 11
-838.1001709665414
 21
991.8770401910476
 31
0.0
 11
-838.1003392493016
 21
991.9397467603757
 31
0.0
 11
-838.1004387493065
 21
992.0394985606009
 31
0.0
 11
-838.1004774825791
 21
992.1769062166255
 31
0.0
 11
-838.1004732250098
 21
992.3510846416607
 31
0.0
 11
-838.1004428337536
 21
992.5596432939261
 31
0.0
 11
-838.1004046113244
 21
992.7987638087709
 31
0.0
 11
-838.1003774007215
 21
993.063385696527
 31
0.0
 11
-838.1003791471485
 21
993.3476065676717
 31
0.0
 11
-838.1004720288063
 21
993.7967517000063
 31
0.0
 11
-838.1007058971525
 21
994.2545871447946
 31
0.0
  0
SPLINE
  5
21A
330
1F
100
AcDbEntity
  8
0
  6
Continuous
 62
     2
100
AcDbSpline
210
0.0
220
0.0
230
1.0
 70
     8
 71
     3
 72
    18
 73
    14
 74
    12
 42
0.0000000001
 43
0.0000000001
 44
0.00000001
 40
0.0
 40
0.0
 40
0.0
 40
0.0
 40
0.4578357642524014
 40
0.9069811561176606
 40
1.191202182965261
 40
1.455824215316777
 40
1.694944861046966
 40
1.903503625676426
 40
2.077682141665942
 40
2.215089874049994
 40
2.314841774758227
 40
2.377548602007947
 40
2.405074053688966
 40
2.405074053688966
 40
2.405074053688966
 40
2.405074053688966
 10
-770.018166669737
 20
994.2545884008665
 30
0.0
 10
-770.0182549787384
 20
994.1019765036456
 30
0.0
 10
-770.0184299205112
 20
993.79964949954
 30
0.0
 10
-770.0184994318331
 20
993.4025821018138
 30
0.0
 10
-770.0185008254566
 20
993.0699192858024
 30
0.0
 10
-770.0184713898075
 20
992.8072647159804
 30
0.0
 10
-770.0184320792127
 20
992.5698309134257
 30
0.0
 10
-770.0183946655803
 20
992.3625449158737
 30
0.0
 10
-770.0183944283267
 20
992.1891633151897
 30
0.0
 10
-770.0183972904618
 20
992.0520504133992
 30
0.0
 10
-770.0185361395279
 20
991.9520953781913
 30
0.0
 10
-770.0185622188116
 20
991.8887666150715
 30
0.0
 10
-770.0188531679803
 20
991.8586905029385
 30
0.0
 10
-770.0189419223304
 20
991.8495157532691
 30
0.0
 11
-770.018166669737
 21
994.2545884008665
 31
0.0
 11
-770.0184005054186
 21
993.7967526963289
 31
0.0
 11
-770.0184933881715
 21
993.3476073140677
 31
0.0
 11
-770.0184951489505
 21
993.0633862872255
 31
0.0
 11
-770.0184679584158
 21
992.7987642562709
 31
0.0
 11
-770.0184297569958
 21
992.5596436135922
 31
0.0
 11
-770.0183993827403
 21
992.3510848511746
 31
0.0
 11
-770.0183951334551
 21
992.1769063352369
 31
0.0
 11
-770.018433862029
 21
992.0394986083107
 31
0.0
 11
-770.0185333399166
 21
991.9397467572048
 31
0.0
 11
-770.0187015812703
 21
991.8770401556499
 31
0.0
 11
-770.0189419223304
 21
991.8495157532691
 31
0.0
  0
SPLINE
  5
21B
330
1F
100
AcDbEntity
  8
0
  6
Continuous
 62
     2
100
AcDbSpline
210
0.0
220
0.0
230
1.0
 70
     8
 71
     3
 72
    18
 73
    14
 74
    12
 42
0.0000000001
 43
0.0000000001
 44
0.00000001
 40
0.0
 40
0.0
 40
0.0
 40
0.0
 40
0.0275256399286745
 40
0.0902329297492761
 40
0.1899855579019504
 40
0.3273942639847907
 40
0.5015739707580804
 40
0.7101341054752033
 40
0.9492562560117326
 40
1.213879878993533
 40
1.498102532218297
 40
1.947250325325997
 40
2.405088318800819
 40
2.405088318800819
 40
2.405088318800819
 40
2.405088318800819
 10
-770.0189412050329
 20
1035.922524958731
 30
0.0
 10
-770.0188524608445
 20
1035.913350146219
 30
0.0
 10
-770.0185615448787
 20
1035.883273816842
 30
0.0
 10
-770.0185354545301
 20
1035.819944594506
 30
0.0
 10
-770.0183966028317
 20
1035.719988837963
 30
0.0
 10
-770.0183937130746
 20
1035.582874972248
 30
0.0
 10
-770.0183939176341
 20
1035.409492193355
 30
0.0
 10
-770.0184312904493
 20
1035.202204840577
 30
0.0
 10
-770.0184705590295
 20
1034.964769549505
 30
0.0
 10
-770.0184999548064
 20
1034.702113405741
 30
0.0
 10
-770.0184985224746
 20
1034.36944871698
 30
0.0
 10
-770.0184289836609
 20
1033.972379233649
 30
0.0
 10
-770.018254050442
 20
1033.670050686051
 30
0.0
 10
-770.0181657457796
 20
1033.517438045754
 30
0.0
 11
-770.0189412050329
 21
1035.922524958731
 31
0.0
 11
-770.0187008908599
 21
1035.895000367861
 31
0.0
 11
-770.0185326582713
 21
1035.83229330371
 31
0.0
 11
-770.0184331722721
 21
1035.732540725167
 31
0.0
 11
-770.0183944209323
 21
1035.595132024548
 31
0.0
 11
-770.0183986367368
 21
1035.420952317826
 31
0.0
 11
-770.0184289708899
 21
1035.212392185315
 31
0.0
 11
-770.0184671300985
 21
1034.973270037823
 31
0.0
 11
-770.0184942808017
 21
1034.708646416234
 31
0.0
 11
-770.0184924869354
 21
1034.424423763015
 31
0.0
 11
-770.0183995759708
 21
1033.975275979517
 31
0.0
 11
-770.0181657457796
 21
1033.517438045754
 31
0.0
  0
SPLINE
  5
21C
330
1F
100
AcDbEntity
  8
0
  6
DASHED
 62
     3
100
AcDbSpline
210
0.0
220
0.0
230
1.0
 70
     8
 71
     3
 72
    15
 73
    11
 74
     9
 42
0.0000000001
 43
0.0000000001
 44
0.00000001
 40
0.0
 40
0.0
 40
0.0
 40
0.0
 40
0.1255576724453011
 40
0.2510516103629302
 40
17.04567959547403
 40
33.84030758058537
 40
50.63493556026952
 40
67.42956353995402
 40
67.55505826771012
 40
67.68061695250022
 40
67.68061695250022
 40
67.68061695250022
 40
67.68061695250022
 10
-837.8997345792185
 20
1033.519046141084
 30
0.0
 10
-837.8578835642088
 20
1033.519405262138
 30
0.0
 10
-837.7742027782488
 20
1033.52012332195
 30
0.0
 10
-832.0925206396468
 20
1033.569231633078
 30
0.0
 10
-820.8539762560346
 20
1033.497323489555
 30
0.0
 10
-804.0594362776999
 20
1033.533142683648
 30
0.0
 10
-787.2648962538703
 20
1033.49732663496
 30
0.0
 10
-776.02635170555
 20
1033.569224256316
 30
0.0
 10
-770.3446689032171
 20
1033.52012348041
 30
0.0
 10
-770.2609875155879
 20
1033.51940552765
 30
0.0
 10
-770.2191361626603
 20
1033.519046459819
 30
0.0
 11
-837.8997345792185
 21
1033.519046141084
 31
0.0
 11
-837.7741815402834
 21
1033.520124808801
 31
0.0
 11
-837.6486922382293
 21
1033.521203476518
 31
0.0
 11
-820.8540642531182
 21
1033.521203476518
 31
0.0
 11
-804.0594362680068
 21
1033.521203476518
 31
0.0
 11
-787.2648082883227
 21
1033.521203476518
 31
0.0
 11
-770.4701803086382
 21
1033.521203476518
 31
0.0
 11
-770.3446902153466
 21
1033.520124968169
 31
0.0
 11
-770.2191361626603
 21
1033.519046459819
 31
0.0
  0
SPLINE
  5
21D
330
1F
100
AcDbEntity
  8
0
  6
Continuous
 62
     2
100
AcDbSpline
210
0.0
220
0.0
230
1.0
 70
     8
 71
     3
 72
     9
 73
     5
 74
     3
 42
0.0000000001
 43
0.0000000001
 44
0.00000001
 40
0.0
 40
0.0
 40
0.0
 40
0.0
 40
0.1004950634750993
 40
0.2009804730528445
 40
0.2009804730528445
 40
0.2009804730528445
 40
0.2009804730528445
 10
-770.2191361626603
 20
1033.519046459819
 30
0.0
 10
-770.1856418977109
 20
1033.518476809996
 30
0.0
 10
-770.1186565853848
 20
1033.517337565072
 30
0.0
 10
-770.0516616196358
 20
1033.517404553266
 30
0.0
 10
-770.0181657457796
 20
1033.517438045754
 30
0.0
 11
-770.2191361626603
 21
1033.519046459819
 31
0.0
 11
-770.1186509542242
 21
1033.5176390976
 31
0.0
 11
-770.0181657457796
 21
1033.517438045754
 31
0.0
  0
SPLINE
  5
21E
330
1F
100
AcDbEntity
  8
0
  6
Continuous
 62
     2
100
AcDbSpline
210
0.0
220
0.0
230
1.0
 70
     8
 71
     3
 72
    19
 73
    15
 74
    13
 42
0.0000000001
 43
0.0000000001
 44
0.00000001
 40
0.0
 40
0.0
 40
0.0
 40
0.0
 40
0.5358658698896221
 40
1.083857691053971
 40
1.440985468523041
 40
1.779811906857317
 40
2.090796598396217
 40
2.36544984653084
 40
2.597215038426678
 40
2.782992221591339
 40
2.92180851144162
 40
3.017966167629621
 40
3.053200272251676
 40
3.082283931359989
 40
3.082283931359989
 40
3.082283931359989
 40
3.082283931359989
 10
-766.5430120680187
 20
1029.863627761287
 30
0.0
 10
-766.3643985449944
 20
1029.861069688656
 30
0.0
 10
-766.0031297060295
 20
1029.855895657521
 30
0.0
 10
-765.5232781091095
 20
1029.832024549469
 30
0.0
 10
-765.1098033993259
 20
1029.800464169151
 30
0.0
 10
-764.7758550951162
 20
1029.766319776674
 30
0.0
 10
-764.4702999691804
 20
1029.725933370387
 30
0.0
 10
-764.2016862542297
 20
1029.679758838722
 30
0.0
 10
-763.976351198214
 20
1029.629610855363
 30
0.0
 10
-763.7982429119686
 20
1029.577200602022
 30
0.0
 10
-763.668191628206
 20
1029.523699698882
 30
0.0
 10
-763.5915750069222
 20
1029.474831322294
 30
0.0
 10
-763.5552866680683
 20
1029.434165483016
 30
0.0
 10
-763.5480676862262
 20
1029.41379384636
 30
0.0
 10
-763.5448033562055
 20
1029.40458205631
 30
0.0
 11
-766.5430120680187
 21
1029.863627761287
 31
0.0
 11
-766.0072550093927
 21
1029.852829398219
 31
0.0
 11
-765.4599232375504
 21
1029.825941341484
 31
0.0
 11
-765.103856304336
 21
1029.798435187422
 31
0.0
 11
-764.7668203562786
 21
1029.763648336007
 31
0.0
 11
-764.4586058886608
 21
1029.722231910248
 31
0.0
 11
-764.1880514952635
 21
1029.674959011836
 31
0.0
 11
-763.9620756860954
 21
1029.623480493545
 31
0.0
 11
-763.7843829688331
 21
1029.569272929345
 31
0.0
 11
-763.657101166937
 21
1029.513871618586
 31
0.0
 11
-763.5783408468583
 21
1029.458707256678
 31
0.0
 11
-763.5560941541723
 21
1029.43138461418
 31
0.0
 11
-763.5448033562055
 21
1029.40458205631
 31
0.0
  0
SPLINE
  5
21F
330
1F
100
AcDbEntity
  8
0
  6
Continuous
 62
     2
100
AcDbSpline
210
0.0
220
0.0
230
1.0
 70
     8
 71
     3
 72
    15
 73
    11
 74
     9
 42
0.0000000001
 43
0.0000000001
 44
0.00000001
 40
0.0
 40
0.0
 40
0.0
 40
0.0
 40
0.6922447962837338
 40
1.408556947338993
 40
2.099601907764054
 40
2.812455769707176
 40
3.508829644303784
 40
4.206339520133681
 40
4.784920664005662
 40
5.596385604005064
 40
5.596385604005064
 40
5.596385604005064
 40
5.596385604005064
 10
-841.5758635727703
 20
1029.863627728603
 30
0.0
 10
-841.5649403399948
 20
1030.09474862879
 30
0.0
 10
-841.5427141051485
 20
1030.56502583619
 30
0.0
 10
-841.3467638437537
 20
1031.243498532823
 30
0.0
 10
-841.0332075714449
 20
1031.880495653913
 30
0.0
 10
-840.60481033783
 20
1032.440325731169
 30
0.0
 10
-840.0734233725354
 20
1032.906877823899
 30
0.0
 10
-839.4979026302077
 20
1033.232424747911
 30
0.0
 10
-838.8366158276294
 20
1033.466522415818
 30
0.0
 10
-838.3719585652134
 20
1033.498678585975
 30
0.0
 10
-838.1007063513896
 20
1033.517450341091
 30
0.0
 11
-841.5758635727703
 21
1029.863627728603
 31
0.0
 11
-841.5167114288184
 21
1030.553340626734
 31
0.0
 11
-841.3245132239608
 21
1031.243386239573
 31
0.0
 11
-841.0173559581655
 21
1031.862415763423
 31
0.0
 11
-840.5840465738366
 21
1032.428457816578
 31
0.0
 11
-840.059951980829
 21
1032.887000541742
 31
0.0
 11
-839.4536711544894
 21
1033.231882530969
 31
0.0
 11
-838.9061735308126
 21
1033.41897206064
 31
0.0
 11
-838.1007063513896
 21
1033.517450341091
 31
0.0
  0
SPLINE
  5
220
330
1F
100
AcDbEntity
  8
0
  6
Continuous
 62
     2
100
AcDbSpline
210
0.0
220
0.0
230
1.0
 70
     8
 71
     3
 72
    15
 73
    11
 74
     9
 42
0.0000000001
 43
0.0000000001
 44
0.00000001
 40
0.0
 40
0.0
 40
0.0
 40
0.0
 40
0.8116707418238381
 40
1.390043128624874
 40
2.204861638399646
 40
2.783695301727741
 40
3.496542530973792
 40
4.187589792442422
 40
5.00580130955408
 40
5.595973891377976
 40
5.595973891377976
 40
5.595973891377976
 40
5.595973891377976
 10
-770.0181657457796
 20
1033.517438045754
 30
0.0
 10
-769.7468321151547
 20
1033.498631137195
 30
0.0
 10
-769.2821542237632
 20
1033.466422985952
 30
0.0
 10
-768.5838549266567
 20
1033.219439226243
 30
0.0
 10
-768.0123861217344
 20
1032.883088281463
 30
0.0
 10
-767.4902547954673
 20
1032.40908663425
 30
0.0
 10
-767.0856648794248
 20
1031.880427477762
 30
0.0
 10
-766.7569407201809
 20
1031.213022452818
 30
0.0
 10
-766.5699113579001
 20
1030.530466601813
 30
0.0
 10
-766.5509554120886
 20
1030.060544868499
 30
0.0
 10
-766.5430120680187
 20
1029.863627761287
 30
0.0
 11
-770.0181657457796
 21
1033.517438045754
 31
0.0
 11
-769.212497525682
 21
1033.418908292595
 31
0.0
 11
-768.6652034382184
 21
1033.231868725547
 31
0.0
 11
-767.9639715595755
 21
1032.816895164646
 31
0.0
 11
-767.534836074117
 21
1032.428448070537
 31
0.0
 11
-767.1015308285635
 21
1031.862411202109
 31
0.0
 11
-766.7943727145357
 21
1031.243379530407
 31
0.0
 11
-766.5855450529567
 21
1030.452265698842
 31
0.0
 11
-766.5430120680187
 21
1029.863627761287
 31
0.0
  0
SPLINE
  5
221
330
1F
100
AcDbEntity
  8
0
  6
Continuous
 62
     2
100
AcDbSpline
210
0.0
220
0.0
230
1.0
 70
     8
 71
     3
 72
    15
 73
    11
 74
     9
 42
0.0000000001
 43
0.0000000001
 44
0.00000001
 40
0.0
 40
0.0
 40
0.0
 40
0.0
 40
0.9809044892449142
 40
2.51740348607539
 40
3.979687329456602
 40
5.055470226733172
 40
6.567920098722239
 40
7.61161287169143
 40
8.563428663083268
 40
10.18931669075622
 40
10.18931669075622
 40
10.18931669075622
 40
10.18931669075622
 10
-844.5740692465561
 20
1029.404582123058
 30
0.0
 10
-844.5603977349242
 20
1029.731818762553
 30
0.0
 10
-844.5253110252398
 20
1030.571642278571
 30
0.0
 10
-844.1591977877266
 20
1031.864231272321
 30
0.0
 10
-843.5107686618219
 20
1033.06912608094
 30
0.0
 10
-842.6451660133212
 20
1034.112707252664
 30
0.0
 10
-841.6936854401447
 20
1034.881884618364
 30
0.0
 10
-840.6526820858633
 20
1035.421746966608
 30
0.0
 10
-839.5053865483251
 20
1035.821900869894
 30
0.0
 10
-838.6435407872121
 20
1035.88360490165
 30
0.0
 10
-838.0999311240964
 20
1035.922524751847
 30
0.0
 11
-844.5740692465561
 21
1029.404582123058
 31
0.0
 11
-844.5032203307434
 21
1030.382924623489
 31
0.0
 11
-844.0995094389398
 21
1031.865438260222
 31
0.0
 11
-843.4032939140878
 21
1033.151345714734
 31
0.0
 11
-842.7168966768072
 21
1033.979698100332
 31
0.0
 11
-841.5397590305927
 21
1034.929356763823
 31
0.0
 11
-840.6144694022524
 21
1035.412195979333
 31
0.0
 11
-839.7127763560834
 21
1035.716995833718
 31
0.0
 11
-838.0999311240964
 21
1035.922524751847
 31
0.0
  0
SPLINE
  5
222
330
1F
100
AcDbEntity
  8
0
  6
Continuous
 62
     2
100
AcDbSpline
210
0.0
220
0.0
230
1.0
 70
     8
 71
     3
 72
    15
 73
    11
 74
     9
 42
0.0000000001
 43
0.0000000001
 44
0.00000001
 40
0.0
 40
0.0
 40
0.0
 40
0.0
 40
1.173857773389384
 40
2.578433211862144
 40
4.083834966058874
 40
5.134591682850663
 40
6.652603306205076
 40
7.672479828917546
 40
9.208947548998568
 40
10.18987680008778
 40
10.18987680008778
 40
10.18987680008778
 40
10.18987680008778
 10
-770.0189412050329
 20
1035.922524958731
 30
0.0
 10
-769.6272072493631
 20
1035.901149694064
 30
0.0
 10
-768.7667453906859
 20
1035.854197930757
 30
0.0
 10
-767.4520358330619
 20
1035.446621985459
 30
0.0
 10
-766.2932343869056
 20
1034.791412027012
 30
0.0
 10
-765.2639629367527
 20
1033.897392179334
 30
0.0
 10
-764.5240434062232
 20
1032.941009918959
 30
0.0
 10
-763.920030977499
 20
1031.721198009156
 30
0.0
 10
-763.5933790915448
 20
1030.57153485342
 30
0.0
 10
-763.5584239726549
 20
1029.731795146399
 30
0.0
 10
-763.5448033562055
 20
1029.40458205631
 30
0.0
 11
-770.0189412050329
 21
1035.922524958731
 31
0.0
 11
-768.8500372969113
 21
1035.814795084858
 31
0.0
 11
-767.5043980708282
 21
1035.412194494213
 31
0.0
 11
-766.1956268456197
 21
1034.668317944237
 31
0.0
 11
-765.4019718779236
 21
1033.979695064763
 31
0.0
 11
-764.4739412335866
 21
1032.778396429198
 31
0.0
 11
-764.0193600206026
 21
1031.865432003614
 31
0.0
 11
-763.6156549893689
 21
1030.382949186645
 31
0.0
 11
-763.5448033562055
 21
1029.40458205631
 31
0.0
  0
SPLINE
  5
223
330
1F
100
AcDbEntity
  8
0
  6
Continuous
 62
     2
100
AcDbSpline
210
0.0
220
0.0
230
1.0
 70
     8
 71
     3
 72
    19
 73
    15
 74
    13
 42
0.0000000001
 43
0.0000000001
 44
0.00000001
 40
0.0
 40
0.0
 40
0.0
 40
0.0
 40
0.5358645673306357
 40
1.083855023671097
 40
1.440981898654548
 40
1.779807468847715
 40
2.090791346513594
 40
2.36544384345442
 40
2.597208353765696
 40
2.782984883244922
 40
2.921800689312216
 40
3.017957581984676
 40
3.053190987866578
 40
3.082273874148712
 40
3.082273874148712
 40
3.082273874148712
 40
3.082273874148712
 10
-841.5758673294714
 20
997.9084205083109
 30
0.0
 10
-841.7544804232462
 20
997.9109782685971
 30
0.0
 10
-842.1157483830699
 20
997.9161516678191
 30
0.0
 10
-842.5955988171357
 20
997.9400222782342
 30
0.0
 10
-843.0090725067782
 20
997.9715822894077
 30
0.0
 10
-843.34301997537
 20
998.0057263846454
 30
0.0
 10
-843.6485743260873
 20
998.0461124600424
 30
0.0
 10
-843.9171873505436
 20
998.0922865741768
 30
0.0
 10
-844.1425218119746
 20
998.1424340129328
 30
0.0
 10
-844.3206296598155
 20
998.1948435716511
 30
0.0
 10
-844.4506806079258
 20
998.2483435964033
 30
0.0
 10
-844.5272970416364
 20
998.2972109791074
 30
0.0
 10
-844.5635853127599
 20
998.3378758708267
 30
0.0
 10
-844.5708042953515
 20
998.3582469848436
 30
0.0
 10
-844.5740686136558
 20
998.3674585045449
 30
0.0
 11
-841.5758673294714
 21
997.9084205083109
 31
0.0
 11
-842.111623102885
 21
997.9192179975768
 31
0.0
 11
-842.6589535385847
 21
997.9461054369682
 31
0.0
 11
-843.0150195916872
 21
997.973611266595
 31
0.0
 11
-843.3520546990765
 21
998.0083978071505
 31
0.0
 11
-843.6602683923094
 21
998.0498138846064
 31
0.0
 11
-843.9308220998581
 21
998.0970863438978
 31
0.0
 11
-844.1567973400519
 21
998.1485642912073
 31
0.0
 11
-844.3344896010129
 21
998.202771110888
 31
0.0
 11
-844.4617712461212
 21
998.2581715696645
 31
0.0
 11
-844.5405313817347
 21
998.3133348640418
 31
0.0
 11
-844.562777894226
 21
998.3406567521906
 31
0.0
 11
-844.5740686136558
 21
998.3674585045449
 31
0.0
  0
SPLINE
  5
224
330
1F
100
AcDbEntity
  8
0
  6
Continuous
 62
     2
100
AcDbSpline
210
0.0
220
0.0
230
1.0
 70
     8
 71
     3
 72
    11
 73
     7
 74
     5
 42
0.0000000001
 43
0.0000000001
 44
0.00000001
 40
0.0
 40
0.0
 40
0.0
 40
0.0
 40
1.700136055932377
 40
3.400272111863958
 40
5.100407417987644
 40
6.800542724112012
 40
6.800542724112012
 40
6.800542724112012
 40
6.800542724112012
 10
-844.5415310617768
 20
1010.485716660424
 30
0.0
 10
-844.5415310432458
 20
1011.052428679068
 30
0.0
 10
-844.5415310061843
 20
1012.185852716356
 30
0.0
 10
-844.5415308897618
 20
1013.885988522352
 30
0.0
 10
-844.5415310166586
 20
1015.586124078412
 30
0.0
 10
-844.5415310607029
 20
1016.719547615828
 30
0.0
 10
-844.5415310827254
 20
1017.286259384536
 30
0.0
 11
-844.5415310617768
 21
1010.485716660424
 31
0.0
 11
-844.5415309960459
 21
1012.185852716356
 31
0.0
 11
-844.5415309303149
 21
1013.885988772288
 31
0.0
 11
-844.5415310065201
 21
1015.586124078412
 31
0.0
 11
-844.5415310827254
 21
1017.286259384536
 31
0.0
  0
SPLINE
  5
225
330
1F
100
AcDbEntity
  8
0
  6
Continuous
 62
     2
100
AcDbSpline
210
0.0
220
0.0
230
1.0
 70
     8
 71
     3
 72
    11
 73
     7
 74
     5
 42
0.0000000001
 43
0.0000000001
 44
0.00000001
 40
0.0
 40
0.0
 40
0.0
 40
0.0
 40
1.699999626052394
 40
3.399999252105129
 40
5.099999626007081
 40
6.799999999909147
 40
6.799999999909147
 40
6.799999999909147
 40
6.799999999909147
 10
-841.5433507976268
 20
1010.485989520191
 30
0.0
 10
-841.5433518488771
 20
1011.052656062207
 30
0.0
 10
-841.5433539513776
 20
1012.185989146239
 30
0.0
 10
-841.5433604630771
 20
1013.885989021571
 30
0.0
 10
-841.543353542983
 20
1015.585989146185
 30
0.0
 10
-841.5433511682197
 20
1016.719322728783
 30
0.0
 10
-841.5433499808381
 20
1017.285989520082
 30
0.0
 11
-841.5433507976268
 21
1010.485989520191
 31
0.0
 11
-841.5433545110357
 21
1012.185989146239
 31
0.0
 11
-841.5433582244448
 21
1013.885988772288
 31
0.0
 11
-841.5433541026414
 21
1015.585989146185
 31
0.0
 11
-841.5433499808381
 21
1017.285989520082
 31
0.0
  0
SPLINE
  5
226
330
1F
100
AcDbEntity
  8
0
  6
Continuous
 62
     2
100
AcDbSpline
210
0.0
220
0.0
230
1.0
 70
     8
 71
     3
 72
    11
 73
     7
 74
     5
 42
0.0000000001
 43
0.0000000001
 44
0.00000001
 40
0.0
 40
0.0
 40
0.0
 40
0.0
 40
3.717609724041533
 40
6.273297985447579
 40
9.836278687055701
 40
12.57762433014875
 40
12.57762433014875
 40
12.57762433014875
 40
12.57762433014875
 10
-841.5758673294714
 20
997.9084205083109
 30
0.0
 10
-841.5699580840298
 20
999.1476099518201
 30
0.0
 10
-841.5599865000613
 20
1001.238685997076
 30
0.0
 10
-841.5500511583125
 20
1004.517431347514
 30
0.0
 10
-841.5442987749408
 20
1007.470765329485
 30
0.0
 10
-841.5436380878892
 20
1009.572207580132
 30
0.0
 10
-841.5433507976268
 20
1010.485989520191
 30
0.0
 11
-841.5758673294714
 21
997.9084205083109
 31
0.0
 11
-841.5594161873908
 21
1001.625993832431
 31
0.0
 11
-841.55145376168
 21
1004.18166969006
 31
0.0
 11
-841.5448616754633
 21
1007.744644293454
 31
0.0
 11
-841.5433507976268
 21
1010.485989520191
 31
0.0
  0
SPLINE
  5
227
330
1F
100
AcDbEntity
  8
0
  6
Continuous
 62
     2
100
AcDbSpline
210
0.0
220
0.0
230
1.0
 70
     8
 71
     3
 72
    11
 73
     7
 74
     5
 42
0.0000000001
 43
0.0000000001
 44
0.00000001
 40
0.0
 40
0.0
 40
0.0
 40
0.0
 40
2.780126928617553
 40
6.044139588655307
 40
8.923045705250473
 40
12.11831569908941
 40
12.11831569908941
 40
12.11831569908941
 40
12.11831569908941
 10
-844.5740686136558
 20
998.3674585045449
 30
0.0
 10
-844.5693944879963
 20
999.2941558285571
 30
0.0
 10
-844.5592326973062
 20
1001.308843692305
 30
0.0
 10
-844.549387388948
 20
1004.283177348975
 30
0.0
 10
-844.5427409687574
 20
1007.395900936304
 30
0.0
 10
-844.5419481287113
 20
1009.420626539751
 30
0.0
 10
-844.5415310617768
 20
1010.485716660424
 30
0.0
 11
-844.5740686136558
 21
998.3674585045449
 31
0.0
 11
-844.5607852495123
 21
1001.147553699221
 31
0.0
 11
-844.5496416574151
 21
1004.41154733666
 31
0.0
 11
-844.5437592031947
 21
1007.290447443454
 31
0.0
 11
-844.5415310617768
 21
1010.485716660424
 31
0.0
  0
SPLINE
  5
228
330
1F
100
AcDbEntity
  8
0
  6
Continuous
 62
     2
100
AcDbSpline
210
0.0
220
0.0
230
1.0
 70
     8
 71
     3
 72
    11
 73
     7
 74
     5
 42
0.0000000001
 43
0.0000000001
 44
0.00000001
 40
0.0
 40
0.0
 40
0.0
 40
0.0
 40
3.768257223580249
 40
6.273145480088733
 40
9.847776602031665
 40
12.57769350690017
 40
12.57769350690017
 40
12.57769350690017
 40
12.57769350690017
 10
-841.5758635727703
 20
1029.863627728603
 30
0.0
 10
-841.5698809739988
 20
1028.607555930915
 30
0.0
 10
-841.5599215391151
 20
1026.516530649777
 30
0.0
 10
-841.5500057938888
 20
1023.233952612338
 30
0.0
 10
-841.5442919220919
 20
1020.297478022907
 30
0.0
 10
-841.5436346043739
 20
1018.195961879801
 30
0.0
 10
-841.5433499808381
 20
1017.285989520082
 30
0.0
 11
-841.5758635727703
 21
1029.863627728603
 31
0.0
 11
-841.55923030086
 21
1026.09540721524
 31
0.0
 11
-841.551452702904
 21
1023.590531033357
 31
0.0
 11
-841.5448473104972
 21
1020.015906014316
 31
0.0
 11
-841.5433499808381
 21
1017.285989520082
 31
0.0
  0
SPLINE
  5
229
330
1F
100
AcDbEntity
  8
0
  6
Continuous
 62
     2
100
AcDbSpline
210
0.0
220
0.0
230
1.0
 70
     8
 71
     3
 72
    11
 73
     7
 74
     5
 42
0.0000000001
 43
0.0000000001
 44
0.00000001
 40
0.0
 40
0.0
 40
0.0
 40
0.0
 40
2.762774938607266
 40
6.043985155528814
 40
8.906337533266633
 40
12.11838028173267
 40
12.11838028173267
 40
12.11838028173267
 40
12.11838028173267
 10
-844.5740692465561
 20
1029.404582123058
 30
0.0
 10
-844.5694223005132
 20
1028.483668734963
 30
0.0
 10
-844.5592564080591
 20
1026.469032374471
 30
0.0
 10
-844.5494185612638
 20
1023.500268102669
 30
0.0
 10
-844.5427488913206
 20
1020.381739037492
 30
0.0
 10
-844.5419523048689
 20
1018.356940425694
 30
0.0
 10
-844.5415310827254
 20
1017.286259384536
 30
0.0
 11
-844.5740692465561
 21
1029.404582123058
 31
0.0
 11
-844.5608575989958
 21
1026.641838773819
 31
0.0
 11
-844.5496423039627
 21
1023.360647724095
 31
0.0
 11
-844.5437828683749
 21
1020.498301343701
 31
0.0
 11
-844.5415310827254
 21
1017.286259384536
 31
0.0
  0
SPLINE
  5
22A
330
1F
100
AcDbEntity
  8
0
  6
Continuous
 62
     2
100
AcDbSpline
210
0.0
220
0.0
230
1.0
 70
     8
 71
     3
 72
    11
 73
     7
 74
     5
 42
0.0000000001
 43
0.0000000001
 44
0.00000001
 40
0.0
 40
0.0
 40
0.0
 40
0.0
 40
2.851187178571558
 40
6.304468201308632
 40
8.574623100576098
 40
12.57769344798523
 40
12.57769344798523
 40
12.57769344798523
 40
12.57769344798523
 10
-766.5755166084991
 20
1017.285989520082
 30
0.0
 10
-766.5752053424869
 20
1018.236385312686
 30
0.0
 10
-766.5745170794743
 20
1020.337874859973
 30
0.0
 10
-766.5688836092846
 20
1023.196078297779
 30
0.0
 10
-766.5592382083523
 20
1026.438233392939
 30
0.0
 10
-766.549332865297
 20
1028.529285585298
 30
0.0
 10
-766.5430120680187
 20
1029.863627761287
 30
0.0
 11
-766.5755166084991
 21
1017.285989520082
 31
0.0
 11
-766.5738764229814
 21
1020.137176226884
 31
0.0
 11
-766.5674090006682
 21
1023.590451193411
 31
0.0
 11
-766.5604741715807
 21
1025.860595500457
 31
0.0
 11
-766.5430120680187
 21
1029.863627761287
 31
0.0
  0
SPLINE
  5
22B
330
1F
100
AcDbEntity
  8
0
  6
Continuous
 62
     2
100
AcDbSpline
210
0.0
220
0.0
230
1.0
 70
     8
 71
     3
 72
    15
 73
    11
 74
     9
 42
0.0000000001
 43
0.0000000001
 44
0.00000001
 40
0.0
 40
0.0
 40
0.0
 40
0.0
 40
0.8376100807701575
 40
1.408346308192097
 40
2.099411085558601
 40
2.812252596793934
 40
3.391077687421237
 40
4.205904991277357
 40
4.784587430505031
 40
5.595966197065101
 40
5.595966197065101
 40
5.595966197065101
 40
5.595966197065101
 10
-766.5430124530819
 20
997.9084170207628
 30
0.0
 10
-766.5588842444108
 20
997.628455466852
 30
0.0
 10
-766.5855708605764
 20
997.1577318808561
 30
0.0
 10
-766.7937193479473
 20
996.4849565073105
 30
0.0
 10
-767.0855922984773
 20
995.8915241212432
 30
0.0
 10
-767.4902518300984
 20
995.3629637256515
 30
0.0
 10
-768.0123647475546
 20
994.8889389531466
 30
0.0
 10
-768.5839270827081
 20
994.5525408560461
 30
0.0
 10
-769.2822483721418
 20
994.3055793103495
 30
0.0
 10
-769.7469312565111
 20
994.2733819822323
 30
0.0
 10
-770.018166669737
 20
994.2545884008665
 30
0.0
 11
-766.5430124530819
 21
997.9084170207628
 31
0.0
 11
-766.6305793828602
 21
997.0753968047915
 31
0.0
 11
-766.7943521793985
 21
996.5286625801394
 31
0.0
 11
-767.1015188721149
 21
995.9096156114833
 31
0.0
 11
-767.5348214007915
 21
995.3435838643325
 31
0.0
 11
-767.9639498766628
 21
994.955141800781
 31
0.0
 11
-768.6651881073345
 21
994.5401617061333
 31
0.0
 11
-769.2127837461194
 21
994.3530457478232
 31
0.0
 11
-770.018166669737
 21
994.2545884008665
 31
0.0
  0
SPLINE
  5
22C
330
1F
100
AcDbEntity
  8
0
  6
Continuous
 62
     2
100
AcDbSpline
210
0.0
220
0.0
230
1.0
 70
     8
 71
     3
 72
    11
 73
     7
 74
     5
 42
0.0000000001
 43
0.0000000001
 44
0.00000001
 40
0.0
 40
0.0
 40
0.0
 40
0.0
 40
2.642032892824228
 40
6.304368835756572
 40
9.031910166081897
 40
12.57762785323087
 40
12.57762785323087
 40
12.57762785323087
 40
12.57762785323087
 10
-766.5755281491463
 20
1010.485989520191
 30
0.0
 10
-766.575263391551
 20
1009.605311835822
 30
0.0
 10
-766.574631631993
 20
1007.503855429751
 30
0.0
 10
-766.5688273636533
 20
1004.493222836123
 30
0.0
 10
-766.5586827806303
 20
1001.18137244324
 30
0.0
 10
-766.5486711443309
 20
999.0903096232029
 30
0.0
 10
-766.5430124530819
 20
997.9084170207628
 30
0.0
 11
-766.5755281491463
 21
1010.485989520191
 31
0.0
 11
-766.5741332853512
 21
1007.843956995577
 31
0.0
 11
-766.5674323570057
 21
1004.18162718295
 31
0.0
 11
-766.5588364044031
 21
1001.454099397898
 31
0.0
 11
-766.5430124530819
 21
997.9084170207628
 31
0.0
  0
SPLINE
  5
22D
330
1F
100
AcDbEntity
  8
0
  6
Continuous
 62
     2
100
AcDbSpline
210
0.0
220
0.0
230
1.0
 70
     8
 71
     3
 72
    11
 73
     7
 74
     5
 42
0.0000000001
 43
0.0000000001
 44
0.00000001
 40
0.0
 40
0.0
 40
0.0
 40
0.0
 40
1.70000037423535
 40
3.400000748470473
 40
5.100000374197557
 40
6.799999999924413
 40
6.799999999924413
 40
6.799999999924413
 40
6.799999999924413
 10
-766.5755166084991
 20
1017.285989520082
 30
0.0
 10
-766.5755162911535
 20
1016.719322728671
 30
0.0
 10
-766.575515656462
 20
1015.585989145849
 30
0.0
 10
-766.5755108672234
 20
1013.885989021111
 30
0.0
 10
-766.575521426785
 20
1012.185989145903
 30
0.0
 10
-766.5755259083592
 20
1011.052656062095
 30
0.0
 10
-766.5755281491463
 20
1010.485989520191
 30
0.0
 11
-766.5755166084991
 21
1017.285989520082
 31
0.0
 11
-766.5755150169283
 21
1015.585989145847
 31
0.0
 11
-766.5755134253575
 21
1013.885988771613
 31
0.0
 11
-766.5755207872519
 21
1012.185989145902
 31
0.0
 11
-766.5755281491463
 21
1010.485989520191
 31
0.0
  0
SPLINE
  5
22E
330
1F
100
AcDbEntity
  8
0
  6
Continuous
 62
     2
100
AcDbSpline
210
0.0
220
0.0
230
1.0
 70
     8
 71
     3
 72
    11
 73
     7
 74
     5
 42
0.0000000001
 43
0.0000000001
 44
0.00000001
 40
0.0
 40
0.0
 40
0.0
 40
0.0
 40
1.700135305938602
 40
3.400270611876977
 40
5.100406668116428
 40
6.800542724355992
 40
6.800542724355992
 40
6.800542724355992
 40
6.800542724355992
 10
-763.5773416102131
 20
1017.28625938349
 30
0.0
 10
-763.5773416105499
 20
1016.719547614844
 30
0.0
 10
-763.5773416112238
 20
1015.586124077552
 30
0.0
 10
-763.5773416854133
 20
1013.885988521513
 30
0.0
 10
-763.5773414668867
 20
1012.185852715373
 30
0.0
 10
-763.5773413699885
 20
1011.05242867788
 30
0.0
 10
-763.5773413215395
 20
1010.485716659134
 30
0.0
 11
-763.5773416102131
 21
1017.28625938349
 31
0.0
 11
-763.5773416234202
 21
1015.586124077551
 31
0.0
 11
-763.5773416366274
 21
1013.885988771613
 31
0.0
 11
-763.5773414790833
 21
1012.185852715374
 31
0.0
 11
-763.5773413215395
 21
1010.485716659134
 31
0.0
  0
SPLINE
  5
22F
330
1F
100
AcDbEntity
  8
0
  6
Continuous
 62
     2
100
AcDbSpline
210
0.0
220
0.0
230
1.0
 70
     8
 71
     3
 72
    11
 73
     7
 74
     5
 42
0.0000000001
 43
0.0000000001
 44
0.00000001
 40
0.0
 40
0.0
 40
0.0
 40
0.0
 40
3.244780340844186
 40
6.074216691839094
 40
9.337467705043334
 40
12.11831611951839
 40
12.11831611951839
 40
12.11831611951839
 40
12.11831611951839
 10
-763.5773413215395
 20
1010.485716659134
 30
0.0
 10
-763.5769119051531
 20
1009.404123082858
 30
0.0
 10
-763.5761080392798
 20
1007.379383943476
 30
0.0
 10
-763.5694298571477
 20
1004.26690081206
 30
0.0
 10
-763.5596403806569
 20
1001.309070374027
 30
0.0
 10
-763.5494787802023
 20
999.2943958966603
 30
0.0
 10
-763.5448034979953
 20
998.3674580801822
 30
0.0
 11
-763.5773413215395
 21
1010.485716659134
 31
0.0
 11
-763.5750427822895
 21
1007.24093713241
 31
0.0
 11
-763.5692302708787
 21
1004.411506751743
 31
0.0
 11
-763.5580897955198
 21
1001.148274754936
 31
0.0
 11
-763.5448034979953
 21
998.3674580801822
 31
0.0
  0
SPLINE
  5
230
330
1F
100
AcDbEntity
  8
0
  6
Continuous
 62
     2
100
AcDbSpline
210
0.0
220
0.0
230
1.0
 70
     8
 71
     3
 72
    19
 73
    15
 74
    13
 42
0.0000000001
 43
0.0000000001
 44
0.00000001
 40
0.0
 40
0.0
 40
0.0
 40
0.0
 40
0.0290823187126303
 40
0.064315140971871
 40
0.1604722798196477
 40
0.2992889776143607
 40
0.4850659861571734
 40
0.7168311105741615
 40
0.99148433126239
 40
1.30246903131131
 40
1.641295505059291
 40
1.99842335929169
 40
2.546415393701023
 40
3.082281643789166
 40
3.082281643789166
 40
3.082281643789166
 40
3.082281643789166
 10
-763.5448034979953
 20
998.3674580801822
 30
0.0
 10
-763.548067785714
 20
998.3582467532021
 30
0.0
 10
-763.5552867123364
 20
998.3378760324515
 30
0.0
 10
-763.59157480564
 20
998.2972114164198
 30
0.0
 10
-763.6681914095892
 20
998.2483439500335
 30
0.0
 10
-763.7982427818085
 20
998.1948435690089
 30
0.0
 10
-763.97635115342
 20
998.1424334474916
 30
0.0
 10
-764.201686080466
 20
998.0922853175158
 30
0.0
 10
-764.4702997015481
 20
998.046110416762
 30
0.0
 10
-764.7758547746018
 20
998.0057235645995
 30
0.0
 10
-765.1098030825128
 20
997.971578793114
 30
0.0
 10
-765.5232778877682
 20
997.9400182248769
 30
0.0
 10
-766.0031297367342
 20
997.9161473961908
 30
0.0
 10
-766.3643987934631
 20
997.9109745218709
 30
0.0
 10
-766.5430124530819
 20
997.9084170207628
 30
0.0
 11
-763.5448034979953
 21
998.3674580801822
 31
0.0
 11
-763.5560940812398
 21
998.3406568863338
 31
0.0
 11
-763.5783402500085
 21
998.3133354709337
 31
0.0
 11
-763.6571005775817
 21
998.2581720215132
 31
0.0
 11
-763.7843829810263
 21
998.202771070619
 31
0.0
 11
-763.9620755940354
 21
998.1485637631307
 31
0.0
 11
-764.1880513087137
 21
998.0970851338598
 31
0.0
 11
-764.4586056142716
 21
998.0498118921843
 31
0.0
 11
-764.766820032648
 21
998.0083950360813
 31
0.0
 11
-765.1038559787428
 21
997.973607820722
 31
0.0
 11
-765.4599229770622
 21
997.946101512783
 31
0.0
 11
-766.0072549843163
 21
997.9192139020438
 31
0.0
 11
-766.5430124530819
 21
997.9084170207628
 31
0.0
  0
SPLINE
  5
231
330
1F
100
AcDbEntity
  8
0
  6
Continuous
 62
     2
100
AcDbSpline
210
0.0
220
0.0
230
1.0
 70
     8
 71
     3
 72
    15
 73
    11
 74
     9
 42
0.0000000001
 43
0.0000000001
 44
0.00000001
 40
0.0
 40
0.0
 40
0.0
 40
0.0
 40
0.9811411845133524
 40
2.517390137885168
 40
3.537308371445863
 40
5.055280651711992
 40
6.329558748362381
 40
7.611836154569285
 40
8.56335447705783
 40
10.18955237958133
 40
10.18955237958133
 40
10.18955237958133
 40
10.18955237958133
 10
-763.5448034979953
 20
998.3674580801822
 30
0.0
 10
-763.5584311099686
 20
998.0401732530324
 30
0.0
 10
-763.5933965324035
 20
997.200433153288
 30
0.0
 10
-763.9200455848932
 20
996.0507882309071
 30
0.0
 10
-764.5241086338422
 20
994.8309761600492
 30
0.0
 10
-765.3097257215273
 20
993.8153374228384
 30
0.0
 10
-766.3568971323704
 20
992.9368630729108
 30
0.0
 10
-767.3906898212457
 20
992.3763223123873
 30
0.0
 10
-768.6133005143341
 20
991.9503187851226
 30
0.0
 10
-769.4751983918878
 20
991.8885093373422
 30
0.0
 10
-770.0189419223304
 20
991.8495157532691
 30
0.0
 11
-763.5448034979953
 21
998.3674580801822
 31
0.0
 11
-763.6156869253583
 21
997.3888807640373
 31
0.0
 11
-764.0193588872397
 21
995.9066156750849
 31
0.0
 11
-764.4739601033447
 21
994.993614614042
 31
0.0
 11
-765.4019695459131
 21
993.7923493152174
 31
0.0
 11
-766.3787768506104
 21
992.9740387646971
 31
0.0
 11
-767.5043910914178
 21
992.3598499278071
 31
0.0
 11
-768.4057939935664
 21
992.0551206610315
 31
0.0
 11
-770.0189419223304
 21
991.8495157532691
 31
0.0
  0
SPLINE
  5
232
330
1F
100
AcDbEntity
  8
0
  6
Continuous
 62
     2
100
AcDbSpline
210
0.0
220
0.0
230
1.0
 70
     8
 71
     3
 72
    11
 73
     7
 74
     5
 42
0.0000000001
 43
0.0000000001
 44
0.00000001
 40
0.0
 40
0.0
 40
0.0
 40
0.0
 40
3.18846794313183
 40
6.074317096463165
 40
9.373514700013807
 40
12.11838021706556
 40
12.11838021706556
 40
12.11838021706556
 40
12.11838021706556
 10
-763.5773416102131
 20
1017.28625938349
 30
0.0
 10
-763.5769262552162
 20
1018.349082153179
 30
0.0
 10
-763.5761349667347
 20
1020.373854751048
 30
0.0
 10
-763.5694682267299
 20
1023.498353637993
 30
0.0
 10
-763.559592660627
 20
1026.474976090155
 30
0.0
 10
-763.5494221958162
 20
1028.489638412258
 30
0.0
 10
-763.5448033562055
 20
1029.40458205631
 30
0.0
 11
-763.5773416102131
 21
1017.28625938349
 31
0.0
 11
-763.5751232107896
 21
1020.474726554888
 31
0.0
 11
-763.5692307983975
 21
1023.360569692562
 31
0.0
 11
-763.5579408312473
 21
1026.659747978729
 31
0.0
 11
-763.5448033562055
 21
1029.40458205631
 31
0.0
  0
SPLINE
  5
233
330
1F
100
AcDbEntity
  8
0
  6
Continuous
 62
     2
100
AcDbSpline
210
0.0
220
0.0
230
1.0
 70
     8
 71
     3
 72
    19
 73
    15
 74
    13
 42
0.0000000001
 43
0.0000000001
 44
0.00000001
 40
0.0
 40
0.0
 40
0.0
 40
0.0
 40
0.0290834996561576
 40
0.0643174112189333
 40
0.1604749788020536
 40
0.2992912373081562
 40
0.4850681639064673
 40
0.7168330456841145
 40
0.9914859472572484
 40
1.302470276710046
 40
1.641296360504859
 40
1.998423816386319
 40
2.546415259449279
 40
3.08228092182898
 40
3.08228092182898
 40
3.08228092182898
 40
3.08228092182898
 10
-844.5740692465561
 20
1029.404582123058
 30
0.0
 10
-844.5708049317518
 20
1029.413793861097
 30
0.0
 10
-844.5635859835476
 20
1029.434165382767
 30
0.0
 10
-844.5272977880378
 20
1029.474831140377
 30
0.0
 10
-844.4506812896765
 20
1029.523699525937
 30
0.0
 10
-844.3206301668904
 20
1029.577200482402
 30
0.0
 10
-844.1425221123807
 20
1029.629610820341
 30
0.0
 10
-843.9171873901996
 20
1029.679758901847
 30
0.0
 10
-843.6485740380825
 20
1029.725933542969
 30
0.0
 10
-843.3430192821808
 20
1029.76632004754
 30
0.0
 10
-843.0090713322724
 20
1029.800464508462
 30
0.0
 10
-842.59559697627
 20
1029.832024911009
 30
0.0
 10
-842.1157456757898
 20
1029.855895945164
 30
0.0
 10
-841.7544770284117
 20
1029.861069761687
 30
0.0
 10
-841.5758635727703
 20
1029.863627728603
 30
0.0
 11
-844.5740692465561
 21
1029.404582123058
 31
0.0
 11
-844.5627785072373
 21
1029.431384532612
 31
0.0
 11
-844.5405319585818
 21
1029.458707043421
 31
0.0
 11
-844.4617717623213
 21
1029.51387142766
 31
0.0
 11
-844.3344900331548
 21
1029.569272826975
 31
0.0
 11
-844.1567976030311
 21
1029.623480453127
 31
0.0
 11
-843.9308221335295
 21
1029.674959066249
 31
0.0
 11
-843.6602681107512
 21
1029.722232072299
 31
0.0
 11
-843.3520540216334
 21
1029.763648595988
 31
0.0
 11
-843.0150184369579
 21
1029.798435514825
 31
0.0
 11
-842.6589518276818
 21
1029.825941686914
 31
0.0
 11
-842.1116204294257
 21
1029.852829642456
 31
0.0
 11
-841.5758635727703
 21
1029.863627728603
 31
0.0
  0
MTEXT
  5
235
330
1F
100
AcDbEntity
  8
Symbole_ISO_
 62
     7
100
AcDbMText
 10
-787.49578755725
 20
745.9672728815447
 30
0.0
 40
6.9999998807907
 41
0.0
 71
     5
 72
     1
  1
G. Merafina
  7
CONVERTER_12
 73
     1
 44
0.75727272727273
  0
MTEXT
  5
236
330
1F
100
AcDbEntity
  8
Symbole_ISO_
 62
     7
100
AcDbMText
 10
-787.49578755725
 20
761.6672728815447
 30
0.0
 40
6.9999998807907
 41
0.0
 71
     5
 72
     1
  1
31.10.2012
  7
CONVERTER_12
 73
     1
 44
0.75727272727273
  0
MTEXT
  5
237
330
1F
100
AcDbEntity
  8
Symbole_ISO_
 62
     7
100
AcDbMText
 10
-527.4207875572497
 20
762.9172728815447
 30
0.0
 40
5.0
 41
0.0
 71
     5
 72
     1
  1
Scale
  7
CONVERTER_11
 73
     1
 44
0.75727272727273
  0
MTEXT
  5
238
330
1F
100
AcDbEntity
  8
Symbole_ISO_
 62
     7
100
AcDbMText
 10
-817.2957875572492
 20
746.3672728815447
 30
0.0
 40
5.0
 41
0.0
 71
     4
 72
     1
  1
Sign.
  7
CONVERTER_11
 73
     1
 44
0.75727272727273
  0
MTEXT
  5
239
330
1F
100
AcDbEntity
  8
Symbole_ISO_
 62
     7
100
AcDbMText
 10
-817.2957875572492
 20
761.6672728815447
 30
0.0
 40
5.0
 41
0.0
 71
     4
 72
     1
  1
Date
  7
CONVERTER_11
 73
     1
 44
0.75727272727273
  0
TEXT
  5
23B
330
1F
100
AcDbEntity
  8
Symbole_ISO_
 62
     7
100
AcDbText
 10
-758.49578755725
 20
743.3672728517427
 30
0.0
 40
8.00000011920928
  1
Dust cover for transportation for 06 poles housings
 41
0.89999994635582
  7
CONVERTER_13
100
AcDbText
  0
TEXT
  5
23C
330
1F
100
AcDbEntity
  8
Symbole_ISO_
 62
     7
100
AcDbText
 10
-532.7903304155757
 20
746.117272881545
 30
0.0
 40
10.0
  1
1:2
 41
0.67499998211861
  7
CONVERTER_11
100
AcDbText
  0
MTEXT
  5
23E
330
1F
100
AcDbEntity
  8
1
 62
     4
100
AcDbMText
 10
-793.2680128341863
 20
798.69250149546
 30
0.0
 40
14.0
 41
0.0
 71
     2
 72
     1
  1
 
  7
CONVERTER_14
 73
     1
 44
1.32052821128451
  0
MTEXT
  5
23F
330
1F
100
AcDbEntity
  8
1
 62
     4
100
AcDbMText
 10
-752.2760812760089
 20
825.0441315662415
 30
0.0
 40
14.0
 41
0.0
 71
     2
 72
     1
  1
 
  7
CONVERTER_14
 73
     1
 44
1.32052821128451
  0
TEXT
  5
240
330
1F
100
AcDbEntity
  8
Symbole_ISO_
 62
     7
100
AcDbText
 10
-758.9999999999982
 20
757.694753130188
 30
0.0
 40
8.00000011920928
  1
CGCP 06 FX 
 41
0.89999994635582
  7
CONVERTER_13
100
AcDbText
  0
DIMENSION
  5
24D
330
1F
100
AcDbEntity
  8
1
100
AcDbDimension
  2
*D2
 10
-871.1076651402689
 20
969.0859895201357
 30
0.0
 11
-804.0585507043975
 21
969.0859895201357
 31
0.0
 70
    32
  1
<>
 71
     5
 42
-1.0
 53
0.00013888888889
  3
ME10_DIM_10
100
AcDbAlignedDimension
 13
-737.0094362685261
 23
1029.984218393908
 33
0.0
 14
-871.1076651402689
 24
991.7859895201358
 34
0.0
100
AcDbRotatedDimension
  0
DIMENSION
  5
259
330
1F
100
AcDbEntity
  8
1
100
AcDbDimension
  2
*D3
 10
-630.7070230779502
 20
1043.98421839391
 30
0.0
 11
-630.7070230779502
 21
1013.885103957024
 31
0.0
 70
    32
  1
<>
 71
     5
 42
-1.0
 53
90.0
  3
ME10_DIM_11
100
AcDbAlignedDimension
 13
-615.8014021055483
 23
983.7859895201378
 33
0.0
 14
-615.8014021055483
 24
1043.98421839391
 34
0.0
 50
90.0
100
AcDbRotatedDimension
  0
DIMENSION
  5
265
330
1F
100
AcDbEntity
  8
1
100
AcDbDimension
  2
*D4
 10
-722.3744805948548
 20
892.9450184306645
 30
0.0
 11
-722.3744805948548
 21
875.945018411757
 31
0.0
 70
    32
  1
<>
 71
     5
 42
-1.0
 53
90.0
  3
ME10_DIM_12
100
AcDbAlignedDimension
 13
-766.5575167248667
 23
858.9450183928494
 33
0.0
 14
-744.9914362685255
 24
892.9450184306645
 34
0.0
 50
90.0
100
AcDbRotatedDimension
  0
HATCH
  5
266
330
1F
100
AcDbEntity
  8
Schraffur
  6
Continuous
 62
     7
100
AcDbHatch
 10
0.0
 20
0.0
 30
0.0
210
0.0
220
0.0
230
1.0
  2
SOLID
 70
     1
 71
     1
 91
        1
 92
        1
 93
        4
 72
     1
 10
-495.7847354388828
 20
756.9990402773329
 11
-495.7847354388828
 21
750.3859627135865
 72
     2
 10
-496.4514021055488
 20
750.3859627135865
 40
0.6666666666655487
 50
0.0
 51
180.0
 73
     0
 72
     1
 10
-497.1180687722144
 20
750.3859627135865
 11
-497.1180687722144
 21
756.9990402773329
 72
     2
 10
-496.4514021055488
 20
756.9990402773329
 40
0.6666666666660035
 50
180.0
 51
360.0
 73
     0
 97
        4
330
192
330
1F9
330
193
330
1FA
 75
     0
 76
     1
 98
        1
 10
0.0
 20
0.0
  0
HATCH
  5
267
330
1F
100
AcDbEntity
  8
Schraffur
  6
Continuous
 62
     7
100
AcDbHatch
 10
0.0
 20
0.0
 30
0.0
210
0.0
220
0.0
230
1.0
  2
SOLID
 70
     1
 71
     1
 91
        1
 92
        1
 93
        7
 72
     1
 10
-493.1180667546087
 20
749.2325426275213
 11
-493.1180667546087
 21
758.5791780434059
 72
     2
 10
-493.7847334212765
 20
758.5791780434059
 40
0.6666666666677656
 50
0.0
 51
180.0
 73
     1
 72
     1
 10
-494.4514000879426
 20
758.5791780434059
 11
-494.4514000879426
 21
749.2325451711837
 72
     2
 10
-493.1180623504865
 20
749.2325451711837
 40
1.333337737456077
 50
180.0
 51
240.0183606311383
 73
     1
 72
     1
 10
-493.7843611559788
 20
748.0776272416643
 11
-489.4490907466347
 21
745.576509697812
 72
     2
 10
-489.1159424443085
 20
746.1539667551777
 40
0.6666666666666282
 50
240.0183606311663
 51
420.0183606312044
 73
     1
 72
     1
 10
-488.7827941419828
 20
746.7314238125435
 11
-493.1180667546087
 21
749.2325426275213
 97
        7
330
1F8
330
190
330
1F7
330
18F
330
1F6
330
18E
330
191
 75
     0
 76
     1
 98
        1
 10
0.0
 20
0.0
  0
HATCH
  5
268
330
1F
100
AcDbEntity
  8
Schraffur
  6
Continuous
 62
     7
100
AcDbHatch
 10
0.0
 20
0.0
 30
0.0
210
0.0
220
0.0
230
1.0
  2
SOLID
 70
     1
 71
     1
 91
        1
 92
        1
 93
       13
 72
     2
 10
-491.2547921880787
 20
760.1966174288215
 40
0.5299324249505502
 50
29.99999999999078
 51
180.0
 73
     1
 72
     1
 10
-491.7847246130305
 20
760.1966174288215
 11
-491.7847246130286
 21
750.3859627135865
 72
     2
 10
-491.1180579463626
 20
750.3859627135865
 40
0.6666666666659467
 50
180.0
 51
360.0
 73
     1
 72
     1
 10
-490.4513912796965
 20
750.3859627135865
 11
-490.4513912796965
 21
757.1982933399529
 72
     1
 10
-490.4513912796965
 20
757.1982933399529
 11
-488.7400772401425
 21
754.2342104757415
 72
     2
 10
-488.4514021055488
 20
754.4008771424081
 40
0.3333333333323408
 50
210.000000000091
 51
329.9999999999481
 73
     1
 72
     1
 10
-488.1627269709547
 20
754.2342104757415
 11
-486.4514129314007
 21
757.1982933399529
 72
     1
 10
-486.4514129314007
 20
757.1982933399529
 11
-486.4514129314007
 21
747.2673583273709
 72
     2
 10
-485.7847462647346
 20
747.2673583273709
 40
0.6666666666660603
 50
180.0
 51
360.0
 73
     1
 72
     1
 10
-485.1180795980667
 20
747.2673583273709
 11
-485.1180795980667
 21
760.1966174288214
 72
     2
 10
-485.6480120230185
 20
760.1966174288214
 40
0.5299324249518236
 50
0.0
 51
149.9999999999771
 73
     1
 72
     1
 10
-486.1069469653144
 20
760.4615836412967
 11
-488.4514021055488
 21
756.4008682223451
 72
     1
 10
-488.4514021055488
 20
756.4008682223451
 11
-490.7958572457824
 21
760.4615836412967
 97
       13
330
18C
330
1F5
330
18B
330
1F4
330
18A
330
189
330
1F3
330
188
330
187
330
1F2
330
186
330
1F1
330
18D
 75
     0
 76
     1
 98
        1
 10
0.0
 20
0.0
  0
HATCH
  5
269
330
1F
100
AcDbEntity
  8
1
  6
Continuous
 62
     7
100
AcDbHatch
 10
0.0
 20
0.0
 30
0.0
210
0.0
220
0.0
230
1.0
  2
SOLID
 70
     1
 71
     1
 91
        1
 92
        1
 93
       14
 72
     1
 10
-480.7123136309547
 20
756.4215832199671
 11
-482.4514041231546
 21
757.4249046577745
 72
     1
 10
-482.4514041231546
 20
757.4249046577745
 11
-482.4514041231546
 21
754.3591681621265
 72
     1
 10
-482.4514041231546
 20
754.3591681621265
 11
-480.3791653286285
 21
754.3591681621265
 72
     2
 10
-480.3791653286285
 20
753.6925014954597
 40
0.6666666666667993
 50
270.0
 51
450.0
 73
     0
 72
     1
 10
-480.3791653286285
 20
753.0258348287929
 11
-482.4514041231546
 21
753.0258348287929
 72
     1
 10
-482.4514041231546
 20
753.0258348287929
 11
-482.4514041231546
 21
749.9600983331449
 72
     1
 10
-482.4514041231546
 20
749.9600983331449
 11
-480.7123136309547
 21
750.9634197709523
 72
     2
 10
-480.3791653286286
 20
750.3859627135867
 40
0.6666666666665286
 50
240.0183606311656
 51
420.0183606311966
 73
     0
 72
     1
 10
-480.0460170263027
 20
749.8085056562207
 11
-482.7849224874944
 21
748.2283678901478
 72
     2
 10
-483.1180707898213
 20
748.8058249475139
 40
0.6666666666672253
 50
60.01836063113016
 51
179.9999999999707
 73
     0
 72
     1
 10
-483.7847374564885
 20
748.8058249475135
 11
-483.7847374564885
 21
758.5791780434059
 72
     2
 10
-483.1180707898213
 20
758.5791780434056
 40
0.6666666666672255
 50
180.0000000000293
 51
299.9816393688699
 73
     0
 72
     1
 10
-482.7849224874944
 20
759.1566351007717
 11
-480.0460170263027
 21
757.5764973346987
 72
     2
 10
-480.3791653286286
 20
756.9990402773328
 40
0.6666666666665287
 50
299.9816393688034
 51
479.9816393688344
 73
     0
 97
       14
330
169
330
1DF
330
171
330
1E0
330
170
330
1EB
330
16F
330
16E
330
16D
330
1EA
330
16C
330
16B
330
16A
330
1E9
 75
     0
 76
     1
 98
        1
 10
0.0
 20
0.0
  0
ENDSEC
  0
SECTION
  2
OBJECTS
  0
DICTIONARY
  5
C
330
0
100
AcDbDictionary
281
     1
  3
ACAD_GROUP
350
D
  3
ACAD_LAYOUT
350
1A
  3
ACAD_MATERIAL
350
3B
  3
ACAD_MLEADERSTYLE
350
26C
  3
ACAD_MLINESTYLE
350
17
  3
ACAD_PLOTSETTINGS
350
19
  3
ACAD_PLOTSTYLENAME
350
E
  3
ACAD_SCALELIST
350
4D
  3
ACAD_VISUALSTYLE
350
2A
  3
AcDbVariableDictionary
350
26A
  0
DICTIONARY
  5
D
102
{ACAD_REACTORS
330
C
102
}
330
C
100
AcDbDictionary
281
     1
  0
DICTIONARY
  5
1A
102
{ACAD_REACTORS
330
C
102
}
330
C
100
AcDbDictionary
281
     1
  3
Layout1
350
1E
  3
Layout2
350
26
  3
Model
350
22
  0
DICTIONARY
  5
3B
102
{ACAD_REACTORS
330
C
102
}
330
C
100
AcDbDictionary
281
     1
  3
ByBlock
350
3D
  3
ByLayer
350
3C
  3
Global
350
3E
  0
DICTIONARY
  5
26C
102
{ACAD_REACTORS
330
C
102
}
330
C
100
AcDbDictionary
281
     1
  0
DICTIONARY
  5
17
102
{ACAD_REACTORS
330
C
102
}
330
C
100
AcDbDictionary
281
     1
  3
Standard
350
18
  0
DICTIONARY
  5
19
102
{ACAD_REACTORS
330
C
102
}
330
C
100
AcDbDictionary
281
     1
  0
ACDBDICTIONARYWDFLT
  5
E
102
{ACAD_REACTORS
330
C
102
}
330
C
100
AcDbDictionary
281
     1
  3
Normal
350
F
100
AcDbDictionaryWithDefault
340
F
  0
DICTIONARY
  5
4D
102
{ACAD_REACTORS
330
C
102
}
330
C
100
AcDbDictionary
281
     1
  3
A0
350
4E
  3
A1
350
4F
  3
A2
350
50
  3
A3
350
51
  3
A4
350
52
  3
A5
350
53
  3
A6
350
54
  3
A7
350
55
  3
A8
350
56
  3
A9
350
57
  3
B0
350
58
  3
B1
350
59
  3
B2
350
5A
  3
B3
350
5B
  3
B4
350
5C
  3
B5
350
5D
  3
B6
350
5E
  3
B7
350
5F
  3
B8
350
60
  3
B9
350
61
  3
C0
350
62
  3
C1
350
63
  3
C2
350
64
  3
C3
350
65
  3
C4
350
66
  3
C5
350
67
  3
C6
350
68
  3
C7
350
69
  3
C8
350
6A
  3
C9
350
6B
  3
D0
350
6C
  3
D1
350
6D
  3
D2
350
6E
  0
DICTIONARY
  5
2A
102
{ACAD_REACTORS
330
C
102
}
330
C
100
AcDbDictionary
281
     1
  3
2dWireframe
350
2F
  3
3D Hidden
350
31
  3
3dWireframe
350
30
  3
Basic
350
32
  3
Brighten
350
36
  3
ColorChange
350
3A
  3
Conceptual
350
34
  3
Dim
350
35
  3
Facepattern
350
39
  3
Flat
350
2B
  3
FlatWithEdges
350
2C
  3
Gouraud
350
2D
  3
GouraudWithEdges
350
2E
  3
Linepattern
350
38
  3
Realistic
350
33
  3
Thicken
350
37
  0
DICTIONARY
  5
26A
102
{ACAD_REACTORS
330
C
102
}
330
C
100
AcDbDictionary
281
     1
  3
CANNOSCALE
350
26D
  3
DIMASSOC
350
26E
  3
HIDETEXT
350
26F
  0
LAYOUT
  5
1E
102
{ACAD_REACTORS
330
1A
102
}
330
1A
100
AcDbPlotSettings
  1

  2
none_device
  4

  6

 40
0.0
 41
0.0
 42
0.0
 43
0.0
 44
0.0
 45
0.0
 46
0.0
 47
0.0
 48
0.0
 49
0.0
140
0.0
141
0.0
142
1.0
143
1.0
 70
   688
 72
     0
 73
     0
 74
     5
  7

 75
    16
147
1.0
148
0.0
149
0.0
100
AcDbLayout
  1
Layout1
 70
     1
 71
     1
 10
0.0
 20
0.0
 11
12.0
 21
9.0
 12
0.0
 22
0.0
 32
0.0
 14
1.00000000000000E+20
 24
1.00000000000000E+20
 34
1.00000000000000E+20
 15
-1.00000000000000E+20
 25
-1.00000000000000E+20
 35
-1.00000000000000E+20
146
0.0
 13
0.0
 23
0.0
 33
0.0
 16
1.0
 26
0.0
 36
0.0
 17
0.0
 27
1.0
 37
0.0
 76
     0
330
1B
  0
LAYOUT
  5
26
102
{ACAD_REACTORS
330
1A
102
}
330
1A
100
AcDbPlotSettings
  1

  2
none_device
  4

  6

 40
0.0
 41
0.0
 42
0.0
 43
0.0
 44
0.0
 45
0.0
 46
0.0
 47
0.0
 48
0.0
 49
0.0
140
0.0
141
0.0
142
1.0
143
1.0
 70
   688
 72
     0
 73
     0
 74
     5
  7

 75
    16
147
1.0
148
0.0
149
0.0
100
AcDbLayout
  1
Layout2
 70
     1
 71
     2
 10
0.0
 20
0.0
 11
0.0
 21
0.0
 12
0.0
 22
0.0
 32
0.0
 14
0.0
 24
0.0
 34
0.0
 15
0.0
 25
0.0
 35
0.0
146
0.0
 13
0.0
 23
0.0
 33
0.0
 16
1.0
 26
0.0
 36
0.0
 17
0.0
 27
1.0
 37
0.0
 76
     0
330
23
  0
LAYOUT
  5
22
102
{ACAD_REACTORS
330
1A
102
}
330
1A
100
AcDbPlotSettings
  1

  2
none_device
  4

  6

 40
0.0
 41
0.0
 42
0.0
 43
0.0
 44
0.0
 45
0.0
 46
0.0
 47
0.0
 48
0.0
 49
0.0
140
0.0
141
0.0
142
1.0
143
1.0
 70
  1712
 72
     0
 73
     0
 74
     0
  7

 75
     0
147
1.0
148
0.0
149
0.0
100
AcDbLayout
  1
Model
 70
     1
 71
     0
 10
0.0
 20
0.0
 11
12.0
 21
9.0
 12
0.0
 22
0.0
 32
0.0
 14
-1020.301402105549
 24
738.1925014954597
 34
0.0
 15
-465.3014021055483
 25
1139.19250149546
 35
0.0
146
0.0
 13
0.0
 23
0.0
 33
0.0
 16
1.0
 26
0.0
 36
0.0
 17
0.0
 27
1.0
 37
0.0
 76
     0
330
1F
331
29
  0
MATERIAL
  5
3D
102
{ACAD_REACTORS
330
3B
102
}
102
{ACAD_XDICTIONARY
360
292
102
}
330
3B
100
AcDbMaterial
  1
ByBlock
  0
MATERIAL
  5
3C
102
{ACAD_REACTORS
330
3B
102
}
102
{ACAD_XDICTIONARY
360
290
102
}
330
3B
100
AcDbMaterial
  1
ByLayer
  0
MATERIAL
  5
3E
102
{ACAD_REACTORS
330
3B
102
}
102
{ACAD_XDICTIONARY
360
294
102
}
330
3B
100
AcDbMaterial
  1
Global
  0
MLINESTYLE
  5
18
102
{ACAD_REACTORS
330
17
102
}
330
17
100
AcDbMlineStyle
  2
Standard
 70
     0
  3

 62
   256
 51
90.0
 52
90.0
 71
     2
 49
0.5
 62
   256
  6
BYLAYER
 49
-0.5
 62
   256
  6
BYLAYER
  0
ACDBPLACEHOLDER
  5
F
102
{ACAD_REACTORS
330
E
102
}
330
E
  0
SCALE
  5
4E
102
{ACAD_REACTORS
330
4D
102
}
330
4D
100
AcDbScale
 70
     0
300
1:1
140
1.0
141
1.0
290
     1
  0
SCALE
  5
4F
102
{ACAD_REACTORS
330
4D
102
}
330
4D
100
AcDbScale
 70
     0
300
1:2
140
1.0
141
2.0
290
     0
  0
SCALE
  5
50
102
{ACAD_REACTORS
330
4D
102
}
330
4D
100
AcDbScale
 70
     0
300
1:4
140
1.0
141
4.0
290
     0
  0
SCALE
  5
51
102
{ACAD_REACTORS
330
4D
102
}
330
4D
100
AcDbScale
 70
     0
300
1:5
140
1.0
141
5.0
290
     0
  0
SCALE
  5
52
102
{ACAD_REACTORS
330
4D
102
}
330
4D
100
AcDbScale
 70
     0
300
1:8
140
1.0
141
8.0
290
     0
  0
SCALE
  5
53
102
{ACAD_REACTORS
330
4D
102
}
330
4D
100
AcDbScale
 70
     0
300
1:10
140
1.0
141
10.0
290
     0
  0
SCALE
  5
54
102
{ACAD_REACTORS
330
4D
102
}
330
4D
100
AcDbScale
 70
     0
300
1:16
140
1.0
141
16.0
290
     0
  0
SCALE
  5
55
102
{ACAD_REACTORS
330
4D
102
}
330
4D
100
AcDbScale
 70
     0
300
1:20
140
1.0
141
20.0
290
     0
  0
SCALE
  5
56
102
{ACAD_REACTORS
330
4D
102
}
330
4D
100
AcDbScale
 70
     0
300
1:30
140
1.0
141
30.0
290
     0
  0
SCALE
  5
57
102
{ACAD_REACTORS
330
4D
102
}
330
4D
100
AcDbScale
 70
     0
300
1:40
140
1.0
141
40.0
290
     0
  0
SCALE
  5
58
102
{ACAD_REACTORS
330
4D
102
}
330
4D
100
AcDbScale
 70
     0
300
1:50
140
1.0
141
50.0
290
     0
  0
SCALE
  5
59
102
{ACAD_REACTORS
330
4D
102
}
330
4D
100
AcDbScale
 70
     0
300
1:100
140
1.0
141
100.0
290
     0
  0
SCALE
  5
5A
102
{ACAD_REACTORS
330
4D
102
}
330
4D
100
AcDbScale
 70
     0
300
2:1
140
2.0
141
1.0
290
     0
  0
SCALE
  5
5B
102
{ACAD_REACTORS
330
4D
102
}
330
4D
100
AcDbScale
 70
     0
300
4:1
140
4.0
141
1.0
290
     0
  0
SCALE
  5
5C
102
{ACAD_REACTORS
330
4D
102
}
330
4D
100
AcDbScale
 70
     0
300
8:1
140
8.0
141
1.0
290
     0
  0
SCALE
  5
5D
102
{ACAD_REACTORS
330
4D
102
}
330
4D
100
AcDbScale
 70
     0
300
10:1
140
10.0
141
1.0
290
     0
  0
SCALE
  5
5E
102
{ACAD_REACTORS
330
4D
102
}
330
4D
100
AcDbScale
 70
     0
300
100:1
140
100.0
141
1.0
290
     0
  0
SCALE
  5
5F
102
{ACAD_REACTORS
330
4D
102
}
330
4D
100
AcDbScale
 70
     0
300
1/128" = 1'-0"
140
0.0078125
141
12.0
290
     0
  0
SCALE
  5
60
102
{ACAD_REACTORS
330
4D
102
}
330
4D
100
AcDbScale
 70
     0
300
1/64" = 1'-0"
140
0.015625
141
12.0
290
     0
  0
SCALE
  5
61
102
{ACAD_REACTORS
330
4D
102
}
330
4D
100
AcDbScale
 70
     0
300
1/32" = 1'-0"
140
0.03125
141
12.0
290
     0
  0
SCALE
  5
62
102
{ACAD_REACTORS
330
4D
102
}
330
4D
100
AcDbScale
 70
     0
300
1/16" = 1'-0"
140
0.0625
141
12.0
290
     0
  0
SCALE
  5
63
102
{ACAD_REACTORS
330
4D
102
}
330
4D
100
AcDbScale
 70
     0
300
3/32" = 1'-0"
140
0.09375
141
12.0
290
     0
  0
SCALE
  5
64
102
{ACAD_REACTORS
330
4D
102
}
330
4D
100
AcDbScale
 70
     0
300
1/8" = 1'-0"
140
0.125
141
12.0
290
     0
  0
SCALE
  5
65
102
{ACAD_REACTORS
330
4D
102
}
330
4D
100
AcDbScale
 70
     0
300
3/16" = 1'-0"
140
0.1875
141
12.0
290
     0
  0
SCALE
  5
66
102
{ACAD_REACTORS
330
4D
102
}
330
4D
100
AcDbScale
 70
     0
300
1/4" = 1'-0"
140
0.25
141
12.0
290
     0
  0
SCALE
  5
67
102
{ACAD_REACTORS
330
4D
102
}
330
4D
100
AcDbScale
 70
     0
300
3/8" = 1'-0"
140
0.375
141
12.0
290
     0
  0
SCALE
  5
68
102
{ACAD_REACTORS
330
4D
102
}
330
4D
100
AcDbScale
 70
     0
300
1/2" = 1'-0"
140
0.5
141
12.0
290
     0
  0
SCALE
  5
69
102
{ACAD_REACTORS
330
4D
102
}
330
4D
100
AcDbScale
 70
     0
300
3/4" = 1'-0"
140
0.75
141
12.0
290
     0
  0
SCALE
  5
6A
102
{ACAD_REACTORS
330
4D
102
}
330
4D
100
AcDbScale
 70
     0
300
1" = 1'-0"
140
1.0
141
12.0
290
     0
  0
SCALE
  5
6B
102
{ACAD_REACTORS
330
4D
102
}
330
4D
100
AcDbScale
 70
     0
300
1-1/2" = 1'-0"
140
1.5
141
12.0
290
     0
  0
SCALE
  5
6C
102
{ACAD_REACTORS
330
4D
102
}
330
4D
100
AcDbScale
 70
     0
300
3" = 1'-0"
140
3.0
141
12.0
290
     0
  0
SCALE
  5
6D
102
{ACAD_REACTORS
330
4D
102
}
330
4D
100
AcDbScale
 70
     0
300
6" = 1'-0"
140
6.0
141
12.0
290
     0
  0
SCALE
  5
6E
102
{ACAD_REACTORS
330
4D
102
}
330
4D
100
AcDbScale
 70
     0
300
1'-0" = 1'-0"
140
12.0
141
12.0
290
     0
  0
VISUALSTYLE
  5
2F
102
{ACAD_REACTORS
330
2A
102
}
102
{ACAD_XDICTIONARY
360
278
102
}
330
2A
100
AcDbVisualStyle
  2
2dWireframe
 70
     4
 71
     0
 72
     2
 73
     0
 90
        0
 40
-0.6
 41
-30.0
 62
     5
 63
     7
 74
     1
 91
        4
 64
     7
 65
   257
 75
     1
175
     1
 42
1.0
 92
        0
 66
   257
 43
1.0
 76
     1
 77
     6
 78
     2
 67
     7
 79
     5
170
     0
171
     0
290
     0
174
     0
 93
        1
 44
0.0
173
     0
291
     0
 45
0.0
1001
ACAD
1000
AcDbSavedByObjectVersion
1070
     0
  0
VISUALSTYLE
  5
31
102
{ACAD_REACTORS
330
2A
102
}
102
{ACAD_XDICTIONARY
360
27C
102
}
330
2A
100
AcDbVisualStyle
  2
3D Hidden
 70
     6
 71
     1
 72
     2
 73
     2
 90
        0
 40
-0.6
 41
-30.0
 62
     5
 63
     7
 74
     2
 91
        2
 64
     7
 65
   257
 75
     2
175
     1
 42
40.0
 92
        0
 66
   257
 43
1.0
 76
     1
 77
     6
 78
     2
 67
     7
 79
     3
170
     0
171
     0
290
     0
174
     0
 93
        1
 44
0.0
173
     0
291
     0
 45
0.0
1001
ACAD
1000
AcDbSavedByObjectVersion
1070
     0
  0
VISUALSTYLE
  5
30
102
{ACAD_REACTORS
330
2A
102
}
102
{ACAD_XDICTIONARY
360
27A
102
}
330
2A
100
AcDbVisualStyle
  2
3dWireframe
 70
     5
 71
     0
 72
     2
 73
     0
 90
        0
 40
-0.6
 41
-30.0
 62
     5
 63
     7
 74
     1
 91
        4
 64
     7
 65
   257
 75
     1
175
     1
 42
1.0
 92
        0
 66
   257
 43
1.0
 76
     1
 77
     6
 78
     2
 67
     7
 79
     5
170
     0
171
     0
290
     0
174
     0
 93
        1
 44
0.0
173
     0
291
     0
 45
0.0
1001
ACAD
1000
AcDbSavedByObjectVersion
1070
     0
  0
VISUALSTYLE
  5
32
102
{ACAD_REACTORS
330
2A
102
}
102
{ACAD_XDICTIONARY
360
27E
102
}
330
2A
100
AcDbVisualStyle
  2
Basic
 70
     7
 71
     1
 72
     0
 73
     1
 90
        0
 40
-0.6
 41
-30.0
 62
     5
 63
     7
 74
     0
 91
        4
 64
     7
 65
   257
 75
     1
175
     1
 42
1.0
 92
        8
 66
     7
 43
1.0
 76
     1
 77
     6
 78
     2
 67
     7
 79
     5
170
     0
171
     0
290
     0
174
     0
 93
        1
 44
0.0
173
     0
291
     1
 45
0.0
1001
ACAD
1000
AcDbSavedByObjectVersion
1070
     0
  0
VISUALSTYLE
  5
36
102
{ACAD_REACTORS
330
2A
102
}
102
{ACAD_XDICTIONARY
360
286
102
}
330
2A
100
AcDbVisualStyle
  2
Brighten
 70
    12
 71
     2
 72
     2
 73
     0
 90
        0
 40
-0.6
 41
-30.0
 62
     5
 63
     7
 74
     1
 91
        4
 64
     7
 65
   257
 75
     1
175
     1
 42
1.0
 92
        8
 66
     7
 43
1.0
 76
     1
 77
     6
 78
     2
 67
     7
 79
     5
170
     0
171
     0
290
     0
174
     0
 93
        1
 44
50.0
173
     0
291
     1
 45
0.0
1001
ACAD
1000
AcDbSavedByObjectVersion
1070
     0
  0
VISUALSTYLE
  5
3A
102
{ACAD_REACTORS
330
2A
102
}
102
{ACAD_XDICTIONARY
360
28E
102
}
330
2A
100
AcDbVisualStyle
  2
ColorChange
 70
    16
 71
     2
 72
     2
 73
     3
 90
        0
 40
-0.6
 41
-30.0
 62
     5
 63
     8
 74
     1
 91
        4
 64
     7
 65
   257
 75
     1
175
     1
 42
1.0
 92
        8
 66
     8
 43
1.0
 76
     1
 77
     6
 78
     2
 67
     7
 79
     5
170
     0
171
     0
290
     0
174
     0
 93
        1
 44
0.0
173
     0
291
     1
 45
0.0
1001
ACAD
1000
AcDbSavedByObjectVersion
1070
     0
  0
VISUALSTYLE
  5
34
102
{ACAD_REACTORS
330
2A
102
}
102
{ACAD_XDICTIONARY
360
282
102
}
330
2A
100
AcDbVisualStyle
  2
Conceptual
 70
     9
 71
     3
 72
     2
 73
     0
 90
        0
 40
-0.6
 41
-30.0
 62
     5
 63
     7
 74
     2
 91
        2
 64
     7
 65
   257
 75
     1
175
     1
 42
40.0
 92
        8
 66
     7
 43
1.0
 76
     1
 77
     6
 78
     2
 67
     7
 79
     3
170
     0
171
     0
290
     0
174
     0
 93
        1
 44
0.0
173
     0
291
     0
 45
0.0
1001
ACAD
1000
AcDbSavedByObjectVersion
1070
     0
  0
VISUALSTYLE
  5
35
102
{ACAD_REACTORS
330
2A
102
}
102
{ACAD_XDICTIONARY
360
284
102
}
330
2A
100
AcDbVisualStyle
  2
Dim
 70
    11
 71
     2
 72
     2
 73
     0
 90
        0
 40
-0.6
 41
-30.0
 62
     5
 63
     7
 74
     1
 91
        4
 64
     7
 65
   257
 75
     1
175
     1
 42
1.0
 92
        8
 66
     7
 43
1.0
 76
     1
 77
     6
 78
     2
 67
     7
 79
     5
170
     0
171
     0
290
     0
174
     0
 93
        1
 44
-50.0
173
     0
291
     1
 45
0.0
1001
ACAD
1000
AcDbSavedByObjectVersion
1070
     0
  0
VISUALSTYLE
  5
39
102
{ACAD_REACTORS
330
2A
102
}
102
{ACAD_XDICTIONARY
360
28C
102
}
330
2A
100
AcDbVisualStyle
  2
Facepattern
 70
    15
 71
     2
 72
     2
 73
     0
 90
        0
 40
-0.6
 41
-30.0
 62
     5
 63
     7
 74
     1
 91
        4
 64
     7
 65
   257
 75
     1
175
     1
 42
1.0
 92
        8
 66
     7
 43
1.0
 76
     1
 77
     6
 78
     2
 67
     7
 79
     5
170
     0
171
     0
290
     0
174
     0
 93
        1
 44
0.0
173
     0
291
     1
 45
0.0
1001
ACAD
1000
AcDbSavedByObjectVersion
1070
     0
  0
VISUALSTYLE
  5
2B
102
{ACAD_REACTORS
330
2A
102
}
102
{ACAD_XDICTIONARY
360
270
102
}
330
2A
100
AcDbVisualStyle
  2
Flat
 70
     0
 71
     2
 72
     1
 73
     1
 90
        2
 40
-0.6
 41
30.0
 62
     5
 63
     7
 74
     0
 91
        4
 64
     7
 65
   257
 75
     1
175
     1
 42
1.0
 92
        8
 66
     7
 43
1.0
 76
     1
 77
     6
 78
     2
 67
     7
 79
     5
170
     0
171
     0
290
     0
174
     0
 93
       13
 44
0.0
173
     0
291
     1
 45
0.0
1001
ACAD
1000
AcDbSavedByObjectVersion
1070
     0
  0
VISUALSTYLE
  5
2C
102
{ACAD_REACTORS
330
2A
102
}
102
{ACAD_XDICTIONARY
360
272
102
}
330
2A
100
AcDbVisualStyle
  2
FlatWithEdges
 70
     1
 71
     2
 72
     1
 73
     1
 90
        2
 40
-0.6
 41
30.0
 62
     5
 63
     7
 74
     1
 91
        4
 64
     7
 65
   257
 75
     1
175
     1
 42
1.0
 92
        0
 66
   257
 43
1.0
 76
     1
 77
     6
 78
     2
 67
     7
 79
     5
170
     0
171
     0
290
     0
174
     0
 93
       13
 44
0.0
173
     0
291
     1
 45
0.0
1001
ACAD
1000
AcDbSavedByObjectVersion
1070
     0
  0
VISUALSTYLE
  5
2D
102
{ACAD_REACTORS
330
2A
102
}
102
{ACAD_XDICTIONARY
360
274
102
}
330
2A
100
AcDbVisualStyle
  2
Gouraud
 70
     2
 71
     2
 72
     2
 73
     1
 90
        2
 40
-0.6
 41
30.0
 62
     5
 63
     7
 74
     0
 91
        4
 64
     7
 65
   257
 75
     1
175
     1
 42
1.0
 92
        0
 66
     7
 43
1.0
 76
     1
 77
     6
 78
     2
 67
     7
 79
     5
170
     0
171
     0
290
     0
174
     0
 93
       13
 44
0.0
173
     0
291
     1
 45
0.0
1001
ACAD
1000
AcDbSavedByObjectVersion
1070
     0
  0
VISUALSTYLE
  5
2E
102
{ACAD_REACTORS
330
2A
102
}
102
{ACAD_XDICTIONARY
360
276
102
}
330
2A
100
AcDbVisualStyle
  2
GouraudWithEdges
 70
     3
 71
     2
 72
     2
 73
     1
 90
        2
 40
-0.6
 41
30.0
 62
     5
 63
     7
 74
     1
 91
        4
 64
     7
 65
   257
 75
     1
175
     1
 42
1.0
 92
        0
 66
   257
 43
1.0
 76
     1
 77
     6
 78
     2
 67
     7
 79
     5
170
     0
171
     0
290
     0
174
     0
 93
       13
 44
0.0
173
     0
291
     1
 45
0.0
1001
ACAD
1000
AcDbSavedByObjectVersion
1070
     0
  0
VISUALSTYLE
  5
38
102
{ACAD_REACTORS
330
2A
102
}
102
{ACAD_XDICTIONARY
360
28A
102
}
330
2A
100
AcDbVisualStyle
  2
Linepattern
 70
    14
 71
     2
 72
     2
 73
     0
 90
        0
 40
-0.6
 41
-30.0
 62
     5
 63
     7
 74
     1
 91
        4
 64
     7
 65
   257
 75
     7
175
     7
 42
1.0
 92
        8
 66
     7
 43
1.0
 76
     1
 77
     6
 78
     2
 67
     7
 79
     5
170
     0
171
     0
290
     0
174
     0
 93
        1
 44
0.0
173
     0
291
     1
 45
0.0
1001
ACAD
1000
AcDbSavedByObjectVersion
1070
     0
  0
VISUALSTYLE
  5
33
102
{ACAD_REACTORS
330
2A
102
}
102
{ACAD_XDICTIONARY
360
280
102
}
330
2A
100
AcDbVisualStyle
  2
Realistic
 70
     8
 71
     2
 72
     2
 73
     0
 90
        0
 40
-0.6
 41
-30.0
 62
     5
 63
     7
 74
     1
 91
        0
 64
     7
 65
   257
 75
     1
175
     1
 42
1.0
 92
        8
 66
     8
 43
1.0
 76
     1
 77
     6
 78
     2
 67
     7
 79
     5
170
     0
171
     0
290
     0
174
     0
 93
       13
 44
0.0
173
     0
291
     0
 45
0.0
1001
ACAD
1000
AcDbSavedByObjectVersion
1070
     0
  0
VISUALSTYLE
  5
37
102
{ACAD_REACTORS
330
2A
102
}
102
{ACAD_XDICTIONARY
360
288
102
}
330
2A
100
AcDbVisualStyle
  2
Thicken
 70
    13
 71
     2
 72
     2
 73
     0
 90
        0
 40
-0.6
 41
-30.0
 62
     5
 63
     7
 74
     1
 91
        4
 64
     7
 65
   257
 75
     1
175
     1
 42
1.0
 92
       12
 66
     7
 43
1.0
 76
     1
 77
     6
 78
     2
 67
     7
 79
     5
170
     0
171
     0
290
     0
174
     0
 93
        1
 44
0.0
173
     0
291
     1
 45
0.0
1001
ACAD
1000
AcDbSavedByObjectVersion
1070
     0
  0
DICTIONARYVAR
  5
26D
102
{ACAD_REACTORS
330
26A
102
}
330
26A
100
DictionaryVariables
280
     0
  1
1:1
  0
DICTIONARYVAR
  5
26E
102
{ACAD_REACTORS
330
26A
102
}
330
26A
100
DictionaryVariables
280
     0
  1
2
  0
DICTIONARYVAR
  5
26F
102
{ACAD_REACTORS
330
26A
102
}
330
26A
100
DictionaryVariables
280
     0
  1
1
  0
DICTIONARY
  5
292
330
3D
100
AcDbDictionary
280
     1
281
     1
  3
ACAD_XREC_ROUNDTRIP
360
293
  0
DICTIONARY
  5
290
330
3C
100
AcDbDictionary
280
     1
281
     1
  3
ACAD_XREC_ROUNDTRIP
360
291
  0
DICTIONARY
  5
294
330
3E
100
AcDbDictionary
280
     1
281
     1
  3
ACAD_XREC_ROUNDTRIP
360
295
  0
DICTIONARY
  5
278
330
2F
100
AcDbDictionary
280
     1
281
     1
  3
ACAD_XREC_ROUNDTRIP
360
279
  0
DICTIONARY
  5
27C
330
31
100
AcDbDictionary
280
     1
281
     1
  3
ACAD_XREC_ROUNDTRIP
360
27D
  0
DICTIONARY
  5
27A
330
30
100
AcDbDictionary
280
     1
281
     1
  3
ACAD_XREC_ROUNDTRIP
360
27B
  0
DICTIONARY
  5
27E
330
32
100
AcDbDictionary
280
     1
281
     1
  3
ACAD_XREC_ROUNDTRIP
360
27F
  0
DICTIONARY
  5
286
330
36
100
AcDbDictionary
280
     1
281
     1
  3
ACAD_XREC_ROUNDTRIP
360
287
  0
DICTIONARY
  5
28E
330
3A
100
AcDbDictionary
280
     1
281
     1
  3
ACAD_XREC_ROUNDTRIP
360
28F
  0
DICTIONARY
  5
282
330
34
100
AcDbDictionary
280
     1
281
     1
  3
ACAD_XREC_ROUNDTRIP
360
283
  0
DICTIONARY
  5
284
330
35
100
AcDbDictionary
280
     1
281
     1
  3
ACAD_XREC_ROUNDTRIP
360
285
  0
DICTIONARY
  5
28C
330
39
100
AcDbDictionary
280
     1
281
     1
  3
ACAD_XREC_ROUNDTRIP
360
28D
  0
DICTIONARY
  5
270
330
2B
100
AcDbDictionary
280
     1
281
     1
  3
ACAD_XREC_ROUNDTRIP
360
271
  0
DICTIONARY
  5
272
330
2C
100
AcDbDictionary
280
     1
281
     1
  3
ACAD_XREC_ROUNDTRIP
360
273
  0
DICTIONARY
  5
274
330
2D
100
AcDbDictionary
280
     1
281
     1
  3
ACAD_XREC_ROUNDTRIP
360
275
  0
DICTIONARY
  5
276
330
2E
100
AcDbDictionary
280
     1
281
     1
  3
ACAD_XREC_ROUNDTRIP
360
277
  0
DICTIONARY
  5
28A
330
38
100
AcDbDictionary
280
     1
281
     1
  3
ACAD_XREC_ROUNDTRIP
360
28B
  0
DICTIONARY
  5
280
330
33
100
AcDbDictionary
280
     1
281
     1
  3
ACAD_XREC_ROUNDTRIP
360
281
  0
DICTIONARY
  5
288
330
37
100
AcDbDictionary
280
     1
281
     1
  3
ACAD_XREC_ROUNDTRIP
360
289
  0
XRECORD
  5
293
102
{ACAD_REACTORS
330
292
102
}
330
292
100
AcDbXrecord
280
     1
102
MATERIAL
148
0.0
149
0.0
149
0.0
 93
        0
 94
      127
282
     0
 72
     1
 77
     1
171
     1
175
     1
179
     1
273
     0
  0
XRECORD
  5
291
102
{ACAD_REACTORS
330
290
102
}
330
290
100
AcDbXrecord
280
     1
102
MATERIAL
148
0.0
149
0.0
149
0.0
 93
        0
 94
      127
282
     0
 72
     1
 77
     1
171
     1
175
     1
179
     1
273
     0
  0
XRECORD
  5
295
102
{ACAD_REACTORS
330
294
102
}
330
294
100
AcDbXrecord
280
     1
102
MATERIAL
148
0.0
149
0.0
149
0.0
 93
        0
 94
      127
282
     0
 72
     1
 77
     1
171
     1
175
     1
179
     1
273
     0
  0
XRECORD
  5
279
102
{ACAD_REACTORS
330
278
102
}
330
278
100
AcDbXrecord
280
     1
102
RTVSPropertyOp0
 70
     1
102
RTVSPropertyOp1
 70
     1
102
RTVSPropertyOp2
 70
     1
102
RTVSPropertyOp3
 70
     1
102
RTVSPropertyOp4
 70
     1
102
RTVSPropertyOp5
 70
     1
102
RTVSPropertyOp6
 70
     1
102
RTVSPropertyOp7
 70
     1
102
RTVSPropertyOp8
 70
     1
102
RTVSPropertyOp9
 70
     1
102
RTVSPropertyOp10
 70
     1
102
RTVSPropertyOp11
 70
     1
102
RTVSPropertyOp12
 70
     1
102
RTVSPropertyOp13
 70
     1
102
RTVSPropertyOp14
 70
     1
102
RTVSPropertyOp15
 70
     1
102
RTVSPropertyOp16
 70
     1
102
RTVSPropertyOp17
 70
     1
102
RTVSPropertyOp18
 70
     1
102
RTVSPropertyOp19
 70
     1
102
RTVSPropertyOp20
 70
     1
102
RTVSPropertyOp21
 70
     1
102
RTVSPropertyOp22
 70
     1
102
RTVSPropertyOp23
 70
     1
102
RTVSPropertyOp24
 70
     1
102
RTVSPropertyOp25
 70
     1
102
RTVSPropertyOp26
 70
     1
102
RTVSPropertyOp27
 70
     1
  0
XRECORD
  5
27D
102
{ACAD_REACTORS
330
27C
102
}
330
27C
100
AcDbXrecord
280
     1
102
RTVSPropertyOp0
 70
     1
102
RTVSPropertyOp1
 70
     1
102
RTVSPropertyOp2
 70
     1
102
RTVSPropertyOp3
 70
     1
102
RTVSPropertyOp4
 70
     1
102
RTVSPropertyOp5
 70
     1
102
RTVSPropertyOp6
 70
     1
102
RTVSPropertyOp7
 70
     1
102
RTVSPropertyOp8
 70
     1
102
RTVSPropertyOp9
 70
     1
102
RTVSPropertyOp10
 70
     1
102
RTVSPropertyOp11
 70
     1
102
RTVSPropertyOp12
 70
     1
102
RTVSPropertyOp13
 70
     1
102
RTVSPropertyOp14
 70
     1
102
RTVSPropertyOp15
 70
     1
102
RTVSPropertyOp16
 70
     1
102
RTVSPropertyOp17
 70
     1
102
RTVSPropertyOp18
 70
     1
102
RTVSPropertyOp19
 70
     1
102
RTVSPropertyOp20
 70
     1
102
RTVSPropertyOp21
 70
     1
102
RTVSPropertyOp22
 70
     1
102
RTVSPropertyOp23
 70
     1
102
RTVSPropertyOp24
 70
     1
102
RTVSPropertyOp25
 70
     1
102
RTVSPropertyOp26
 70
     1
102
RTVSPropertyOp27
 70
     1
  0
XRECORD
  5
27B
102
{ACAD_REACTORS
330
27A
102
}
330
27A
100
AcDbXrecord
280
     1
102
RTVSPropertyOp0
 70
     1
102
RTVSPropertyOp1
 70
     1
102
RTVSPropertyOp2
 70
     1
102
RTVSPropertyOp3
 70
     1
102
RTVSPropertyOp4
 70
     1
102
RTVSPropertyOp5
 70
     1
102
RTVSPropertyOp6
 70
     1
102
RTVSPropertyOp7
 70
     1
102
RTVSPropertyOp8
 70
     1
102
RTVSPropertyOp9
 70
     1
102
RTVSPropertyOp10
 70
     1
102
RTVSPropertyOp11
 70
     1
102
RTVSPropertyOp12
 70
     1
102
RTVSPropertyOp13
 70
     1
102
RTVSPropertyOp14
 70
     1
102
RTVSPropertyOp15
 70
     1
102
RTVSPropertyOp16
 70
     1
102
RTVSPropertyOp17
 70
     1
102
RTVSPropertyOp18
 70
     1
102
RTVSPropertyOp19
 70
     1
102
RTVSPropertyOp20
 70
     1
102
RTVSPropertyOp21
 70
     1
102
RTVSPropertyOp22
 70
     1
102
RTVSPropertyOp23
 70
     1
102
RTVSPropertyOp24
 70
     1
102
RTVSPropertyOp25
 70
     1
102
RTVSPropertyOp26
 70
     1
102
RTVSPropertyOp27
 70
     1
  0
XRECORD
  5
27F
102
{ACAD_REACTORS
330
27E
102
}
330
27E
100
AcDbXrecord
280
     1
102
RTVSPropertyOp0
 70
     1
102
RTVSPropertyOp1
 70
     1
102
RTVSPropertyOp2
 70
     1
102
RTVSPropertyOp3
 70
     1
102
RTVSPropertyOp4
 70
     1
102
RTVSPropertyOp5
 70
     1
102
RTVSPropertyOp6
 70
     1
102
RTVSPropertyOp7
 70
     1
102
RTVSPropertyOp8
 70
     1
102
RTVSPropertyOp9
 70
     1
102
RTVSPropertyOp10
 70
     1
102
RTVSPropertyOp11
 70
     1
102
RTVSPropertyOp12
 70
     1
102
RTVSPropertyOp13
 70
     1
102
RTVSPropertyOp14
 70
     1
102
RTVSPropertyOp15
 70
     1
102
RTVSPropertyOp16
 70
     1
102
RTVSPropertyOp17
 70
     1
102
RTVSPropertyOp18
 70
     1
102
RTVSPropertyOp19
 70
     1
102
RTVSPropertyOp20
 70
     1
102
RTVSPropertyOp21
 70
     1
102
RTVSPropertyOp22
 70
     1
102
RTVSPropertyOp23
 70
     1
102
RTVSPropertyOp24
 70
     1
102
RTVSPropertyOp25
 70
     1
102
RTVSPropertyOp26
 70
     1
102
RTVSPropertyOp27
 70
     1
  0
XRECORD
  5
287
102
{ACAD_REACTORS
330
286
102
}
330
286
100
AcDbXrecord
280
     1
102
RTVSPropertyOp0
 70
     1
102
RTVSPropertyOp1
 70
     1
102
RTVSPropertyOp2
 70
     1
102
RTVSPropertyOp3
 70
     1
102
RTVSPropertyOp4
 70
     1
102
RTVSPropertyOp5
 70
     1
102
RTVSPropertyOp6
 70
     1
102
RTVSPropertyOp7
 70
     1
102
RTVSPropertyOp8
 70
     1
102
RTVSPropertyOp9
 70
     1
102
RTVSPropertyOp10
 70
     1
102
RTVSPropertyOp11
 70
     1
102
RTVSPropertyOp12
 70
     1
102
RTVSPropertyOp13
 70
     1
102
RTVSPropertyOp14
 70
     1
102
RTVSPropertyOp15
 70
     1
102
RTVSPropertyOp16
 70
     1
102
RTVSPropertyOp17
 70
     1
102
RTVSPropertyOp18
 70
     1
102
RTVSPropertyOp19
 70
     1
102
RTVSPropertyOp20
 70
     1
102
RTVSPropertyOp21
 70
     1
102
RTVSPropertyOp22
 70
     1
102
RTVSPropertyOp23
 70
     1
102
RTVSPropertyOp24
 70
     1
102
RTVSPropertyOp25
 70
     1
102
RTVSPropertyOp26
 70
     1
102
RTVSPropertyOp27
 70
     1
  0
XRECORD
  5
28F
102
{ACAD_REACTORS
330
28E
102
}
330
28E
100
AcDbXrecord
280
     1
102
RTVSPropertyOp0
 70
     1
102
RTVSPropertyOp1
 70
     1
102
RTVSPropertyOp2
 70
     1
102
RTVSPropertyOp3
 70
     1
102
RTVSPropertyOp4
 70
     1
102
RTVSPropertyOp5
 70
     1
102
RTVSPropertyOp6
 70
     1
102
RTVSPropertyOp7
 70
     1
102
RTVSPropertyOp8
 70
     1
102
RTVSPropertyOp9
 70
     1
102
RTVSPropertyOp10
 70
     1
102
RTVSPropertyOp11
 70
     1
102
RTVSPropertyOp12
 70
     1
102
RTVSPropertyOp13
 70
     1
102
RTVSPropertyOp14
 70
     1
102
RTVSPropertyOp15
 70
     1
102
RTVSPropertyOp16
 70
     1
102
RTVSPropertyOp17
 70
     1
102
RTVSPropertyOp18
 70
     1
102
RTVSPropertyOp19
 70
     1
102
RTVSPropertyOp20
 70
     1
102
RTVSPropertyOp21
 70
     1
102
RTVSPropertyOp22
 70
     1
102
RTVSPropertyOp23
 70
     1
102
RTVSPropertyOp24
 70
     1
102
RTVSPropertyOp25
 70
     1
102
RTVSPropertyOp26
 70
     1
102
RTVSPropertyOp27
 70
     1
  0
XRECORD
  5
283
102
{ACAD_REACTORS
330
282
102
}
330
282
100
AcDbXrecord
280
     1
102
RTVSPropertyOp0
 70
     1
102
RTVSPropertyOp1
 70
     1
102
RTVSPropertyOp2
 70
     1
102
RTVSPropertyOp3
 70
     1
102
RTVSPropertyOp4
 70
     1
102
RTVSPropertyOp5
 70
     1
102
RTVSPropertyOp6
 70
     1
102
RTVSPropertyOp7
 70
     1
102
RTVSPropertyOp8
 70
     1
102
RTVSPropertyOp9
 70
     1
102
RTVSPropertyOp10
 70
     1
102
RTVSPropertyOp11
 70
     1
102
RTVSPropertyOp12
 70
     1
102
RTVSPropertyOp13
 70
     1
102
RTVSPropertyOp14
 70
     1
102
RTVSPropertyOp15
 70
     1
102
RTVSPropertyOp16
 70
     1
102
RTVSPropertyOp17
 70
     1
102
RTVSPropertyOp18
 70
     1
102
RTVSPropertyOp19
 70
     1
102
RTVSPropertyOp20
 70
     1
102
RTVSPropertyOp21
 70
     1
102
RTVSPropertyOp22
 70
     1
102
RTVSPropertyOp23
 70
     1
102
RTVSPropertyOp24
 70
     1
102
RTVSPropertyOp25
 70
     1
102
RTVSPropertyOp26
 70
     1
102
RTVSPropertyOp27
 70
     1
  0
XRECORD
  5
285
102
{ACAD_REACTORS
330
284
102
}
330
284
100
AcDbXrecord
280
     1
102
RTVSPropertyOp0
 70
     1
102
RTVSPropertyOp1
 70
     1
102
RTVSPropertyOp2
 70
     1
102
RTVSPropertyOp3
 70
     1
102
RTVSPropertyOp4
 70
     1
102
RTVSPropertyOp5
 70
     1
102
RTVSPropertyOp6
 70
     1
102
RTVSPropertyOp7
 70
     1
102
RTVSPropertyOp8
 70
     1
102
RTVSPropertyOp9
 70
     1
102
RTVSPropertyOp10
 70
     1
102
RTVSPropertyOp11
 70
     1
102
RTVSPropertyOp12
 70
     1
102
RTVSPropertyOp13
 70
     1
102
RTVSPropertyOp14
 70
     1
102
RTVSPropertyOp15
 70
     1
102
RTVSPropertyOp16
 70
     1
102
RTVSPropertyOp17
 70
     1
102
RTVSPropertyOp18
 70
     1
102
RTVSPropertyOp19
 70
     1
102
RTVSPropertyOp20
 70
     1
102
RTVSPropertyOp21
 70
     1
102
RTVSPropertyOp22
 70
     1
102
RTVSPropertyOp23
 70
     1
102
RTVSPropertyOp24
 70
     1
102
RTVSPropertyOp25
 70
     1
102
RTVSPropertyOp26
 70
     1
102
RTVSPropertyOp27
 70
     1
  0
XRECORD
  5
28D
102
{ACAD_REACTORS
330
28C
102
}
330
28C
100
AcDbXrecord
280
     1
102
RTVSPropertyOp0
 70
     1
102
RTVSPropertyOp1
 70
     1
102
RTVSPropertyOp2
 70
     1
102
RTVSPropertyOp3
 70
     1
102
RTVSPropertyOp4
 70
     1
102
RTVSPropertyOp5
 70
     1
102
RTVSPropertyOp6
 70
     1
102
RTVSPropertyOp7
 70
     1
102
RTVSPropertyOp8
 70
     1
102
RTVSPropertyOp9
 70
     1
102
RTVSPropertyOp10
 70
     1
102
RTVSPropertyOp11
 70
     1
102
RTVSPropertyOp12
 70
     1
102
RTVSPropertyOp13
 70
     1
102
RTVSPropertyOp14
 70
     1
102
RTVSPropertyOp15
 70
     1
102
RTVSPropertyOp16
 70
     1
102
RTVSPropertyOp17
 70
     1
102
RTVSPropertyOp18
 70
     1
102
RTVSPropertyOp19
 70
     1
102
RTVSPropertyOp20
 70
     1
102
RTVSPropertyOp21
 70
     1
102
RTVSPropertyOp22
 70
     1
102
RTVSPropertyOp23
 70
     1
102
RTVSPropertyOp24
 70
     1
102
RTVSPropertyOp25
 70
     1
102
RTVSPropertyOp26
 70
     1
102
RTVSPropertyOp27
 70
     1
  0
XRECORD
  5
271
102
{ACAD_REACTORS
330
270
102
}
330
270
100
AcDbXrecord
280
     1
102
RTVSPropertyOp0
 70
     1
102
RTVSPropertyOp1
 70
     1
102
RTVSPropertyOp2
 70
     1
102
RTVSPropertyOp3
 70
     1
102
RTVSPropertyOp4
 70
     1
102
RTVSPropertyOp5
 70
     1
102
RTVSPropertyOp6
 70
     1
102
RTVSPropertyOp7
 70
     1
102
RTVSPropertyOp8
 70
     1
102
RTVSPropertyOp9
 70
     1
102
RTVSPropertyOp10
 70
     1
102
RTVSPropertyOp11
 70
     1
102
RTVSPropertyOp12
 70
     1
102
RTVSPropertyOp13
 70
     1
102
RTVSPropertyOp14
 70
     1
102
RTVSPropertyOp15
 70
     1
102
RTVSPropertyOp16
 70
     1
102
RTVSPropertyOp17
 70
     1
102
RTVSPropertyOp18
 70
     1
102
RTVSPropertyOp19
 70
     1
102
RTVSPropertyOp20
 70
     1
102
RTVSPropertyOp21
 70
     1
102
RTVSPropertyOp22
 70
     1
102
RTVSPropertyOp23
 70
     1
102
RTVSPropertyOp24
 70
     1
102
RTVSPropertyOp25
 70
     1
102
RTVSPropertyOp26
 70
     1
102
RTVSPropertyOp27
 70
     1
  0
XRECORD
  5
273
102
{ACAD_REACTORS
330
272
102
}
330
272
100
AcDbXrecord
280
     1
102
RTVSPropertyOp0
 70
     1
102
RTVSPropertyOp1
 70
     1
102
RTVSPropertyOp2
 70
     1
102
RTVSPropertyOp3
 70
     1
102
RTVSPropertyOp4
 70
     1
102
RTVSPropertyOp5
 70
     1
102
RTVSPropertyOp6
 70
     1
102
RTVSPropertyOp7
 70
     1
102
RTVSPropertyOp8
 70
     1
102
RTVSPropertyOp9
 70
     1
102
RTVSPropertyOp10
 70
     1
102
RTVSPropertyOp11
 70
     1
102
RTVSPropertyOp12
 70
     1
102
RTVSPropertyOp13
 70
     1
102
RTVSPropertyOp14
 70
     1
102
RTVSPropertyOp15
 70
     1
102
RTVSPropertyOp16
 70
     1
102
RTVSPropertyOp17
 70
     1
102
RTVSPropertyOp18
 70
     1
102
RTVSPropertyOp19
 70
     1
102
RTVSPropertyOp20
 70
     1
102
RTVSPropertyOp21
 70
     1
102
RTVSPropertyOp22
 70
     1
102
RTVSPropertyOp23
 70
     1
102
RTVSPropertyOp24
 70
     1
102
RTVSPropertyOp25
 70
     1
102
RTVSPropertyOp26
 70
     1
102
RTVSPropertyOp27
 70
     1
  0
XRECORD
  5
275
102
{ACAD_REACTORS
330
274
102
}
330
274
100
AcDbXrecord
280
     1
102
RTVSPropertyOp0
 70
     1
102
RTVSPropertyOp1
 70
     1
102
RTVSPropertyOp2
 70
     1
102
RTVSPropertyOp3
 70
     1
102
RTVSPropertyOp4
 70
     1
102
RTVSPropertyOp5
 70
     1
102
RTVSPropertyOp6
 70
     1
102
RTVSPropertyOp7
 70
     1
102
RTVSPropertyOp8
 70
     1
102
RTVSPropertyOp9
 70
     1
102
RTVSPropertyOp10
 70
     1
102
RTVSPropertyOp11
 70
     1
102
RTVSPropertyOp12
 70
     1
102
RTVSPropertyOp13
 70
     1
102
RTVSPropertyOp14
 70
     1
102
RTVSPropertyOp15
 70
     1
102
RTVSPropertyOp16
 70
     1
102
RTVSPropertyOp17
 70
     1
102
RTVSPropertyOp18
 70
     1
102
RTVSPropertyOp19
 70
     1
102
RTVSPropertyOp20
 70
     1
102
RTVSPropertyOp21
 70
     1
102
RTVSPropertyOp22
 70
     1
102
RTVSPropertyOp23
 70
     1
102
RTVSPropertyOp24
 70
     1
102
RTVSPropertyOp25
 70
     1
102
RTVSPropertyOp26
 70
     1
102
RTVSPropertyOp27
 70
     1
  0
XRECORD
  5
277
102
{ACAD_REACTORS
330
276
102
}
330
276
100
AcDbXrecord
280
     1
102
RTVSPropertyOp0
 70
     1
102
RTVSPropertyOp1
 70
     1
102
RTVSPropertyOp2
 70
     1
102
RTVSPropertyOp3
 70
     1
102
RTVSPropertyOp4
 70
     1
102
RTVSPropertyOp5
 70
     1
102
RTVSPropertyOp6
 70
     1
102
RTVSPropertyOp7
 70
     1
102
RTVSPropertyOp8
 70
     1
102
RTVSPropertyOp9
 70
     1
102
RTVSPropertyOp10
 70
     1
102
RTVSPropertyOp11
 70
     1
102
RTVSPropertyOp12
 70
     1
102
RTVSPropertyOp13
 70
     1
102
RTVSPropertyOp14
 70
     1
102
RTVSPropertyOp15
 70
     1
102
RTVSPropertyOp16
 70
     1
102
RTVSPropertyOp17
 70
     1
102
RTVSPropertyOp18
 70
     1
102
RTVSPropertyOp19
 70
     1
102
RTVSPropertyOp20
 70
     1
102
RTVSPropertyOp21
 70
     1
102
RTVSPropertyOp22
 70
     1
102
RTVSPropertyOp23
 70
     1
102
RTVSPropertyOp24
 70
     1
102
RTVSPropertyOp25
 70
     1
102
RTVSPropertyOp26
 70
     1
102
RTVSPropertyOp27
 70
     1
  0
XRECORD
  5
28B
102
{ACAD_REACTORS
330
28A
102
}
330
28A
100
AcDbXrecord
280
     1
102
RTVSPropertyOp0
 70
     1
102
RTVSPropertyOp1
 70
     1
102
RTVSPropertyOp2
 70
     1
102
RTVSPropertyOp3
 70
     1
102
RTVSPropertyOp4
 70
     1
102
RTVSPropertyOp5
 70
     1
102
RTVSPropertyOp6
 70
     1
102
RTVSPropertyOp7
 70
     1
102
RTVSPropertyOp8
 70
     1
102
RTVSPropertyOp9
 70
     1
102
RTVSPropertyOp10
 70
     1
102
RTVSPropertyOp11
 70
     1
102
RTVSPropertyOp12
 70
     1
102
RTVSPropertyOp13
 70
     1
102
RTVSPropertyOp14
 70
     1
102
RTVSPropertyOp15
 70
     1
102
RTVSPropertyOp16
 70
     1
102
RTVSPropertyOp17
 70
     1
102
RTVSPropertyOp18
 70
     1
102
RTVSPropertyOp19
 70
     1
102
RTVSPropertyOp20
 70
     1
102
RTVSPropertyOp21
 70
     1
102
RTVSPropertyOp22
 70
     1
102
RTVSPropertyOp23
 70
     1
102
RTVSPropertyOp24
 70
     1
102
RTVSPropertyOp25
 70
     1
102
RTVSPropertyOp26
 70
     1
102
RTVSPropertyOp27
 70
     1
  0
XRECORD
  5
281
102
{ACAD_REACTORS
330
280
102
}
330
280
100
AcDbXrecord
280
     1
102
RTVSPropertyOp0
 70
     1
102
RTVSPropertyOp1
 70
     1
102
RTVSPropertyOp2
 70
     1
102
RTVSPropertyOp3
 70
     1
102
RTVSPropertyOp4
 70
     1
102
RTVSPropertyOp5
 70
     1
102
RTVSPropertyOp6
 70
     1
102
RTVSPropertyOp7
 70
     1
102
RTVSPropertyOp8
 70
     1
102
RTVSPropertyOp9
 70
     1
102
RTVSPropertyOp10
 70
     1
102
RTVSPropertyOp11
 70
     1
102
RTVSPropertyOp12
 70
     1
102
RTVSPropertyOp13
 70
     1
102
RTVSPropertyOp14
 70
     1
102
RTVSPropertyOp15
 70
     1
102
RTVSPropertyOp16
 70
     1
102
RTVSPropertyOp17
 70
     1
102
RTVSPropertyOp18
 70
     1
102
RTVSPropertyOp19
 70
     1
102
RTVSPropertyOp20
 70
     1
102
RTVSPropertyOp21
 70
     1
102
RTVSPropertyOp22
 70
     1
102
RTVSPropertyOp23
 70
     1
102
RTVSPropertyOp24
 70
     1
102
RTVSPropertyOp25
 70
     1
102
RTVSPropertyOp26
 70
     1
102
RTVSPropertyOp27
 70
     1
  0
XRECORD
  5
289
102
{ACAD_REACTORS
330
288
102
}
330
288
100
AcDbXrecord
280
     1
102
RTVSPropertyOp0
 70
     1
102
RTVSPropertyOp1
 70
     1
102
RTVSPropertyOp2
 70
     1
102
RTVSPropertyOp3
 70
     1
102
RTVSPropertyOp4
 70
     1
102
RTVSPropertyOp5
 70
     1
102
RTVSPropertyOp6
 70
     1
102
RTVSPropertyOp7
 70
     1
102
RTVSPropertyOp8
 70
     1
102
RTVSPropertyOp9
 70
     1
102
RTVSPropertyOp10
 70
     1
102
RTVSPropertyOp11
 70
     1
102
RTVSPropertyOp12
 70
     1
102
RTVSPropertyOp13
 70
     1
102
RTVSPropertyOp14
 70
     1
102
RTVSPropertyOp15
 70
     1
102
RTVSPropertyOp16
 70
     1
102
RTVSPropertyOp17
 70
     1
102
RTVSPropertyOp18
 70
     1
102
RTVSPropertyOp19
 70
     1
102
RTVSPropertyOp20
 70
     1
102
RTVSPropertyOp21
 70
     1
102
RTVSPropertyOp22
 70
     1
102
RTVSPropertyOp23
 70
     1
102
RTVSPropertyOp24
 70
     1
102
RTVSPropertyOp25
 70
     1
102
RTVSPropertyOp26
 70
     1
102
RTVSPropertyOp27
 70
     1
  0
ENDSEC
  0
EOF
